1 сезон

3 сезон

iTunes

1

iTunes

DUB Netflix

iTunes

13

1 сезон

RePack

30

Deluxe

pack

Легкие деньги

ВАЖНО

ИГРА 18+

pack

RePack

MK11

RePack

jed

RePack

fifa19

RePack

RDR2

RePack

NEED FOR SPEED™ PAYBACK

4 сезон

9 сезон

Бесстыжие 9 сезон

Все сериалы

все сериалы на PB.wtf

RePack

FAR CRY 5

Anonymous, доброй ночи, мы не успеваем до 1 числа собрать деньги на оплату серверов, помогите нам пожалуйста в это трудное время. В качестве благодарности мы отключим Вам всю рекламу на сайте (укажите свой ник в строку Ваше имя)!

×
  
Magnet ссылка

Великий / Minamata (Эндрю Левитас) [2020, Драма, биография, WEBRip-AVC] DUB [IVI] от MediaBit piratbit.org

Великий через торрент piratbit.org

Раздают: 15 [ 6 KB/s ]
Размер: 1.45 GB | Добавлен: 14 д. назад | Торрент скачан:184 раза
Скачать  

05-06-2021 13:03 Великий Скачать торрент  


Великий / Minamata
Информация о фильме:
Название: Великий
Оригинальное название: Minamata
Год выхода: 2020
Жанр: Драма, биография
Режиссер: Эндрю Левитас

В ролях: Джонни Депп, Акико Ивасэ, Кэтерин Дженкинс, Билл Найи, Минами, Таданобу Асано, Рё Касэ, Хироюки Санада, Дзюн Кунимура, Ёсукэ Хосои, Лили Робинсон, Масаёси Ханэда, Тацуя Хирано, Кэнта Огава, Сюнсукэ Окубо, Кодзи Оно, Бомбер Хёрли-Смит, Котаро Судзуки, Тацуя Тагава, Ана Тркуля

Описание: 1970-е. Военный фотограф Юджин Смит по заданию журнала Life возвращается в Японию, где в небольшом прибрежном городке Минамата разворачивается экологическая катастрофа. Именно оттуда Смит сделает репортаж, который потрясёт весь мир, снимет величайшие кадры в истории фотографии и пройдет трудный путь преодоления и познания себя.



Страна: Великобритания, США, ОАЭ
Студия: Metalwork Pictures, Head Gear Films, Infinitum Nihil
Продолжительность: 01:50:36
Перевод: Дублированный - IVI



Информация о файле:
Кодек: AVC
Формат: MKV
Качество: WEBRip-AVC
Видео: MPEG-4 AVC, 1024x552, 25.000 fps, 1489 kbps
Аудио RU: AC3, 6 ch, 48 kHz, 384 kbps
Субтитры: Отсутствуют

Версия 18+

x264 info: frame I:1012 Avg QP:12.49 size: 62019
x264 info: frame P:38348 Avg QP:16.21 size: 17122
x264 info: frame B:126560 Avg QP:19.61 size: 4051
General
Unique ID : 124863725034416583551713737646181583141 (0x5DEFE0F28F0586B38632740086160925)
Complete name : D:uTorrentРипы_от_wolf1245_MediaBitVelikij.2020.DUB.WEBRip-AVC.[wolf1245.MediaBit].mkv
Format : Matroska
Format version : Version 4
File size : 1.45 GiB
Duration : 1 h 50 min
Overall bit rate : 1 871 kb/s
Movie name : Velikij.2020.DUB.WEBRip-AVC.[wolf1245.MediaBit]
Encoded date : UTC 2021-06-05 12:50:13
Writing application : mkvmerge v57.0.0 ('Till The End') 64-bit
Writing library : libebml v1.4.2 + libmatroska v1.6.4
Video
ID : 1
Format : AVC
Format/Info : Advanced Video Codec
Format profile : High@L4.1
Format settings : CABAC / 12 Ref Frames
Format settings, CABAC : Yes
Format settings, Reference frames : 12 frames
Codec ID : V_MPEG4/ISO/AVC
Duration : 1 h 50 min
Bit rate : 1 489 kb/s
Width : 1 024 pixels
Height : 552 pixels
Display aspect ratio : 1.85:1
Frame rate mode : Constant
Frame rate : 25.000 FPS
Color space : YUV
Chroma subsampling : 4:2:0
Bit depth : 8 bits
Scan type : Progressive
Bits/(Pixel*Frame) : 0.105
Stream size : 1.15 GiB (79%)
Title : .[wolf1245.MediaBit]
Writing library : x264 core 157 r2958 57baac4
Encoding settings : cabac=1 / ref=12 / deblock=1:0:0 / analyse=0x3:0x133 / me=umh / subme=10 / psy=1 / psy_rd=0.97:0.05 / mixed_ref=1 / me_range=32 / chroma_me=1 / trellis=2 / 8x8dct=1 / cqm=0 / deadzone=21,11 / fast_pskip=1 / chroma_qp_offset=-3 / threads=10 / lookahead_threads=2 / sliced_threads=0 / nr=0 / decimate=1 / interlaced=0 / bluray_compat=0 / constrained_intra=0 / bframes=10 / b_pyramid=2 / b_adapt=2 / b_bias=0 / direct=3 / weightb=1 / open_gop=0 / weightp=2 / keyint=250 / keyint_min=25 / scenecut=40 / intra_refresh=0 / rc_lookahead=60 / rc=2pass / mbtree=1 / bitrate=1489 / ratetol=1.0 / qcomp=0.60 / qpmin=0 / qpmax=69 / qpstep=4 / cplxblur=20.0 / qblur=0.5 / vbv_maxrate=50000 / vbv_bufsize=62500 / nal_hrd=none / filler=0 / ip_ratio=1.40 / aq=1:0.80
Language : English
Default : Yes
Forced : No
Audio
ID : 2
Format : AC-3
Format/Info : Audio Coding 3
Commercial name : Dolby Digital
Codec ID : A_AC3
Duration : 1 h 50 min
Bit rate mode : Constant
Bit rate : 384 kb/s
Channel(s) : 6 channels
Channel layout : L R C LFE Ls Rs
Sampling rate : 48.0 kHz
Frame rate : 31.250 FPS (1536 SPF)
Bit depth : 16 bits
Compression mode : Lossy
Stream size : 304 MiB (21%)
Title : DUB | IVI
Language : Russian
Service kind : Complete Main
Default : Yes
Forced : No
Релиз от: &
Автор релиза:
piratbit.org



Скачать Великий через торрент https://i114.fastpic.ru/big/2021/0605/60/3e927881cb9294c9deb452ff3522b760.png Скачать фильм Великий через торрент бесплантно в хорошем качестве Описание: 1970-е. Военный фотограф Юджин Смит по заданию журнала Life возвращается в Японию, где в небольшом прибрежном городке Минамата ... 10 10 7
Торрент: Зарегистрирован [2021-06-05 13:03] · скачан: 184 раз
Статус: √ проверено
Размер: 1.45 GB
Как cкачать? Как скачать Великий через торрент | UTorrent

28-11-2019 20:33  

Отключить всю рекламу на сайте

06-06-2021 16:23 Великий Скачать торрент  

кому интересно,что случилось в японии посмотрите SUREN на ютюбе очень хорошо дядька рассказываетpiratbit.org



    Дорогой пользователь! Огромная просьба, поблагодарите релизера, оцените раздачу и оставьте свои комментарий, если Вы скачали Великий через торрент бесплатно! Внесите свою лепту в развитие PiratBit!
    Комментировать посты могут только пользователи прошедшие не сложную регистрацию
    Показать сообщения:    

    Великий через торрент
    Скачать бесплатно Великий
    Великий скачать торрент
    Великий смотреть онлайн
    Cкачать фильм Великий бесплатно
    Великий скачать торрент в хорошем качестве
    Великий смотреть онлайн бесплатно в хорошем качестве


    Вы не можете начинать темы
    Вы не можете отвечать на сообщения
    Вы не можете редактировать свои сообщения
    Вы не можете удалять свои сообщения
    Вы не можете голосовать в опросах
    Вы не можете прикреплять файлы к сообщениям
    Вы можете скачивать файлы