Доктор Стрэндж

Лицензия

Добыча

Дубляж

Дом дракона

1 сезон

Тор

Дубляж

В эфире

Дубляж

Там, где раки поют

MVO

Властелин колец

1 сезон

GLOBAL

pack

Рекомендуем

30

Пиратка

ВАЖНО

ВАЖНО

Ghostwire

Пиратка

jed

RePack

nioh2

RePack

RDR2

RePack

NEED FOR SPEED™ PAYBACK

RePack

скачать торрент

Кинопоиск HD

Острые козырьки 6 сезон

6 сезон

FAR CRY 6

RePack

скачать торрент

Лицензия

скачать торрент

MVO

1

1 сезон

скачать торрент

1 сезон

скачать торрент

Лицензия

  

Годзилла против Конга / Godzilla vs. Kong (Адам Вингард) [2021 г., Боевик, фантастика, HDRip, КПК] Дубляж [iTunes]

Годзилла против Конга через торрент piratbit.org

Размер: 424 MB | Добавлен: 1 год 5 мес. назад | Торрент скачан:11 раз
| Скачать   

07-06-2021 15:22 Годзилла против Конга Скачать торрент  

Годзилла против Конга / Godzilla vs. Kong

Год выпуска: 2021
Страна: США, Австралия, Канада, Индия
Жанр: Боевик, фантастика
Продолжительность: 01:53:08
Перевод: Дубляж | iTunes
Субтитры: Нет

Режиссер: Адам Вингард

rating

В ролях: Александр Скарсгард, Милли Бобби Браун, Ребекка Холл, Эйса Гонсалес, Лэнс Реддик, Джессика Хенвик, Кайл Чандлер, Джулиан Деннисон, Ван Мартен, Брайан Тайри Генри, Сюн Огури, Демиан Бичир

Описание: По вине человечества Годзилла и Конг встречаются в неравной схватке. Тем временем, организация «Монарх», изучающая земную жизнь монстров, отправляет ученых в неизведанные земли, чтобы раскрыть тайну происхождения этих созданий. Однако опасность поджидает титанов с другой стороны — кое-кто планирует уничтожить всех гигантских существ.

Качество: HDRip
Формат: MP4
Видео кодек: H.264
Аудио кодек: AAC LC
Видео: H.264, 640х264, 400 kb/s, 23.976 FPS
Аудио#1: AAC LC, 2 ch, 128 kb/s
General
Complete name : D:\Изготовление рипа\Godzilla.vs.Kong.2021.HDRip.KPK.by.sergey82.RG GeneralFilm.mp4
Format : MPEG-4
Format profile : Base Media
Codec ID : isom (isom/avc1/iso6)
File size : 424 MiB
Duration : 1 h 53 min
Overall bit rate mode : Variable
Overall bit rate : 524 kb/s
Encoded date : UTC 2021-06-07 14:11:18
Tagged date : UTC 2021-06-07 14:11:18

Video
ID : 1
Format : AVC
Format/Info : Advanced Video Codec
Format profile : High@L4.1
Format settings : CABAC / 4 Ref Frames
Format settings, CABAC : Yes
Format settings, Reference : 4 frames
Codec ID : avc1
Codec ID/Info : Advanced Video Coding
Duration : 1 h 53 min
Bit rate : 400 kb/s
Maximum bit rate : 4 098 kb/s
Width : 640 pixels
Height : 264 pixels
Display aspect ratio : 2.40:1
Frame rate mode : Constant
Frame rate : 23.976 (24000/1001) FPS
Color space : YUV
Chroma subsampling : 4:2:0
Bit depth : 8 bits
Scan type : Progressive
Bits/(Pixel*Frame) : 0.099
Stream size : 317 MiB (75%)
Title : 264@GPAC0.5.2-DEV-rev248-g39d5978-master
Writing library : x264 core 146 r2538 121396c
Encoding settings : cabac=1 / ref=3 / deblock=1:0:0 / analyse=0x3:0x113 / me=hex / subme=7 / psy=1 / psy_rd=1.00:0.00 / mixed_ref=1 / me_range=16 / chroma_me=1 / trellis=1 / 8x8dct=1 / cqm=0 / deadzone=21,11 / fast_pskip=1 / chroma_qp_offset=-2 / threads=6 / lookahead_threads=1 / sliced_threads=0 / nr=0 / decimate=1 / interlaced=0 / bluray_compat=0 / constrained_intra=0 / bframes=3 / b_pyramid=2 / b_adapt=1 / b_bias=0 / direct=1 / weightb=1 / open_gop=0 / weightp=2 / keyint=250 / keyint_min=23 / scenecut=40 / intra_refresh=0 / rc_lookahead=40 / rc=2pass / mbtree=1 / bitrate=400 / ratetol=1.0 / qcomp=0.60 / qpmin=0 / qpmax=69 / qpstep=4 / cplxblur=20.0 / qblur=0.5 / ip_ratio=1.40 / aq=1:1.00
Encoded date : UTC 2021-06-07 14:11:18
Tagged date : UTC 2021-06-07 14:11:25
Codec configuration box : avcC

Audio
ID : 2
Format : AAC LC
Format/Info : Advanced Audio Codec Low Complexity
Codec ID : mp4a-40-2
Duration : 1 h 53 min
Bit rate mode : Variable
Bit rate : 128 kb/s
Maximum bit rate : 135 kb/s
Channel(s) : 2 channels
Channel layout : L R
Sampling rate : 48.0 kHz
Frame rate : 46.875 FPS (1024 SPF)
Compression mode : Lossy
Stream size : 104 MiB (24%)
Encoded date : UTC 2021-06-07 13:43:04
Tagged date : UTC 2021-06-07 14:11:25




Скачать Годзилла против Конга через торрент https://a.radikal.ru/a06/2104/f1/e7fcb9f3a72f.jpg Скачать, смотреть онлайн Годзилла против Конга бесплантно в хорошем качестве Описание: По вине человечества Годзилла и Конг встречаются в неравной схватке. Тем временем, организация «Монарх», изучающая земную жизнь ... 5 10 1
Торрент: Зарегистрирован [2021-06-07 15:22] · скачан: 11 раз
Статус: √ проверено
Размер: 424 MB
Как cкачать? Как скачать Годзилла против Конга через торрент | UTorrent

% Раздел Тема Автор DL S | L
3D Фильмы [ 14.24 GB ] Годзилла против Конга в 3Д / Godzilla vs. Kong 3D | iTunes | 1080p serega768 Скачать
1 | 0
3D Фильмы [ 9.81 GB ] Годзилла против Конга 3 Д / Godzilla vs. Kong 3D | iTunes | 1080p, (Half OverUnder bober100 Скачать
1 | 0
3D Фильмы [ 9.87 GB ] Годзилла против Конга 3Д / Godzilla vs. Kong 3D | iTunes | 1080p, (Anamorph SideBySide bober100 Скачать
2 | 0
Фильмы (Blu-ray, BD-Remux, HDDVD) [ 34.82 GB ] Годзилла против Конга / Godzilla vs. Kong | iTunes | BD Remux 1080p, (2D/3D bober100 Скачать
1 | 0
Ultra HD (UHD: 2K, 4K, 8K) [ 41.31 GB ] Годзилла против Конга / Godzilla vs. Kong | iTunes | 2160p, (Dolby Vision TV bober100 Скачать
1 | 0
Ultra HD (UHD: 2K, 4K, 8K) [ 43.65 GB ] Годзилла против Конга / Godzilla vs. Kong | iTunes | 2160p bober100 Скачать
1 | 0
Фильмы [HD 720p, 1080p] (Хороший звук DUB, MVO) [ 5.62 GB ] Годзилла против Конга / Godzilla vs. Kong | iTunes | 720p bober100 Скачать
1 | 0

28-11-2019 20:33  


Отключить вcю реклaмy на сайте, в т.ч. и в плеере онлайн просмотра!

    Дорогой пользователь! Огромная просьба, поблагодарите релизера, оцените раздачу и оставьте свои комментарий, если Вы скачали Годзилла против Конга через торрент бесплатно!!
    Комментировать посты могут только пользователи прошедшие не сложную регистрацию
    Показать сообщения:    


    Годзилла против Конга через торрент
    Скачать бесплатно Годзилла против Конга
    Годзилла против Конга скачать торрент
    Годзилла против Конга смотреть онлайн
    Cкачать фильм Годзилла против Конга бесплатно
    Годзилла против Конга скачать торрент в хорошем качестве
    Годзилла против Конга смотреть онлайн бесплатно в хорошем качестве
    Вы не можете начинать темы
    Вы не можете отвечать на сообщения
    Вы не можете редактировать свои сообщения
    Вы не можете удалять свои сообщения
    Вы не можете голосовать в опросах
    Вы не можете прикреплять файлы к сообщениям
    Вы можете скачивать файлы
    Годзилла против Конга / Godzilla vs. Kong [2021 г., Боевик, фантастика, HDRip, КПК] Дубляж [iTunes] смотреть онлайн, скачать торрент picoco.icu