1 сезон

3 сезон

iTunes

1

iTunes

DUB Netflix

iTunes

13

1 сезон

RePack

30

Deluxe

pack

Легкие деньги

ВАЖНО

ИГРА 18+

pack

RePack

MK11

RePack

jed

RePack

fifa19

RePack

RDR2

RePack

NEED FOR SPEED™ PAYBACK

4 сезон

9 сезон

Бесстыжие 9 сезон

Все сериалы

все сериалы на PB.wtf

RePack

FAR CRY 5

Anonymous, добрый день, мы не успеваем до 1 числа собрать деньги на оплату серверов, помогите нам пожалуйста в это трудное время. В качестве благодарности мы отключим Вам всю рекламу на сайте (укажите свой ник в строку Ваше имя)!

×
  
Magnet ссылка

Триада / Сезон: 2 / Серии: 1-6 из 16 (Дмитрий Дьяченко) [2021, Комедия, WEBRip] piratbit.org

Триада через торрент piratbit.org

Раздают: 1 [ 0 KB/s ]
Размер: 2.05 GB | Добавлен: 6 д. назад | Торрент скачан:7 раз
Скачать  

07-06-2021 18:54 Триада Скачать торрент  

Триада 2
Год выпуска: 2021
Страна: Россия
Выпущено: Comedy Club Production по заказу телеканала ТНТ
Жанр: Комедия
Продолжительность: ~ 00:25:00 (Серия)
Перевод: Не требуется
Субтитры: отсутствуют

Режиссер: Радда Новикова

rating

В ролях: Борис Дергачев, Дарья Мороз, Любовь Аксёнова, Анастасия Калашникова, Инга Оболдина, Кирилл Полухин, Александр Пташенчук, Ника Вайпер, Тимофей Трибунцев, Елена Шевченко, Виталия Корниенко, Лаура Пицхелаури

Описание: Простой российский мужик по имени Толик давно мечтал о детях. Вместе с женой Ритой он не вылезал из клиники ЭКО, вот только Рита не знала, что у Толика есть любовница Наташа. Чтобы раз и навсегда сделать выбор между Ритой и Наташей, Толик переспал со случайной танцовщицей Миланой в клубе, чтобы понять, перед кем ему будет стыдно. В итоге от Толика забеременели и Рита, и Наташа, и Милана. Толя хочет стать любящим отцом для всех своих детей, поэтому он лавирует между женщинами и обстоятельствами, постепенно впутываясь во все более странные и комичные ситуации. Когда казалось, что тяжелее Толику быть уже не может, все три его пассии решили рожать в один день в одном роддоме.

Качество: WEBRip
Формат: AVI

Видео: XviD, 720х400, ~ 1753 Кбит/с, 0.243 bit/pixel, 25 Кадр/с
Аудио: 48.0 kHz, AC3 Dolby Digital, 2/0 (L,R) ch, ~ 192 kbps
скриншот  скриншот  скриншот  скриншот  

Общее
Полное имя : D:\Triada.S02.WEB-DLRip.25Kuzmich\Triada.s02e01.WEB-DLRip.25Kuzmich.avi
Формат : AVI
Формат/Информация : Audio Video Interleave
Размер файла : 350 Мбайт
Продолжительность : 25 м. 3 с.
Общий поток : 1 955 Кбит/сек
Программа кодирования : VirtualDubMod 1.5.10.3 | www.virtualdub-fr.org || (build 2550/release)
Библиотека кодирования : VirtualDubMod build 2550/release

Видео
Идентификатор : 0
Формат : MPEG-4 Visual
Профиль формата : Advanced Simple@L5
Настройки формата : BVOP1
Параметр BVOP формата : 1
Параметр QPel формата : Нет
Параметр GMC формата : Без точки перехода
Параметр матрицы формата : Default (MPEG)
Идентификатор кодека : XVID
Идентификатор кодека/Подсказка : XviD
Продолжительность : 25 м. 3 с.
Битрейт : 1 753 Кбит/сек
Ширина : 720 пикселей
Высота : 400 пикселей
Соотношение сторон : 16:9
Частота кадров : 25,000 кадров/сек
Цветовое пространство : YUV
Субдискретизация насыщенности : 4:2:0
Битовая глубина : 8 бит
Тип развёртки : Прогрессивная
Метод сжатия : С потерями
Бит/(Пиксели*Кадры) : 0.243
Размер потока : 314 Мбайт (90%)
Библиотека кодирования : XviD 73

Аудио
Идентификатор : 1
Формат : AC-3
Формат/Информация : Audio Coding 3
Коммерческое название : Dolby Digital
Идентификатор кодека : 2000
Продолжительность : 25 м. 3 с.
Вид битрейта : Постоянный
Битрейт : 192 Кбит/сек
Каналы : 2 канала
Channel layout : L R
Частота : 48,0 КГц
Частота кадров : 31,250 кадров/сек (1536 SPF)
Метод сжатия : С потерями
Размер потока : 34,4 Мбайт (10%)
Выравнивание : Разделение по промежуткам
Продолжительность промежутка : 40 мс. (1,00 видеокадр)
Время предзагрузки промежутка : 500 мс.
Service kind : Complete Main

Когда раздача ведётся путём добавления новых серий, при каждом добавлении создётся новый торрент. Чтобы начать докачку новой серии, пользователям необходимо сделать следующее:
(1) остановить скачивание,
(2) удалить старый торрент у себя из клиента (старые серии удалять не надо),
(3) скачать новый торрент и запустить его у себя в клиенте вместо старого, при этом указать клиенту путь в старую папку, куда и должно происходить скачивание новых серий.
Ваш клиент при этом должен произвести хеширование (проверку) старой папки (если не производит сам - помогите ему сделать это), и будет докачивать только те серии, которых у вас ещё нет. Старые серии при этом не удаляются, а продолжают раздаваться!
Eсли вы уже удалили старые серии, то предотвратить повторную закачку старых серий можно, отжав галочку в соответсвующих местах при запуске нового торрента. По возможности, желательно не удалять старые серии как можно дольше, чтобы релизёр не столько продолжал раздавать старые серии, а смог сконцентрироваться на новых.

piratbit.org



Скачать Триада через торрент https://i114.fastpic.ru/big/2021/0607/10/69f3711c0b3b1eb153963e282c70fa10.jpg Скачать фильм Триада через торрент бесплантно в хорошем качестве Описание: Простой российский мужик по имени Толик давно мечтал о детях. Вместе с женой Ритой он не вылезал из клиники ЭКО, вот только Рита ... 10 10 3
Торрент: Зарегистрирован [2021-06-16 00:37] · скачан: 7 раз
Статус: √ проверено
Размер: 2.05 GB
Как cкачать? Как скачать Триада через торрент | UTorrent

% Раздел Тема Автор DL S | L
TNT serials [ 1.83 GB ] Триада / Сезон: 2 / Серии: 1-6 из 16 [2021 WEBRip-AVC] bober100 Скачать
4 | 1
TNT serials [ 4.73 GB ] Триада / Сезон: 2 / Серии: 1-6 из 16 [2021 WEBRip 1080p] bober100 Скачать
3 | 0
TNT serials [ 3.22 GB ] Триада / Сезон: 2 / Серии: 1-6 из 16 [2021 WEBRip 720p] bober100 Скачать
1 | 0

28-11-2019 20:33  

Отключить всю рекламу на сайте

    Дорогой пользователь! Огромная просьба, поблагодарите релизера, оцените раздачу и оставьте свои комментарий, если Вы скачали Триада через торрент бесплатно! Внесите свою лепту в развитие PiratBit!
    Комментировать посты могут только пользователи прошедшие не сложную регистрацию
    Показать сообщения:    

    Триада через торрент
    Скачать бесплатно Триада
    Триада скачать торрент
    Триада смотреть онлайн
    Cкачать фильм Триада бесплатно
    Триада скачать торрент в хорошем качестве
    Триада смотреть онлайн бесплатно в хорошем качестве


    Вы не можете начинать темы
    Вы не можете отвечать на сообщения
    Вы не можете редактировать свои сообщения
    Вы не можете удалять свои сообщения
    Вы не можете голосовать в опросах
    Вы не можете прикреплять файлы к сообщениям
    Вы можете скачивать файлы