1 сезон

3 сезон

iTunes

1

iTunes

DUB Netflix

iTunes

13

1 сезон

RePack

30

Deluxe

pack

Легкие деньги

ВАЖНО

ИГРА 18+

pack

RePack

MK11

RePack

jed

RePack

fifa19

RePack

RDR2

RePack

NEED FOR SPEED™ PAYBACK

4 сезон

9 сезон

Бесстыжие 9 сезон

Все сериалы

все сериалы на PB.wtf

RePack

FAR CRY 5

Anonymous, добрый вечер, мы не успеваем до 1 числа собрать деньги на оплату серверов, помогите нам пожалуйста в это трудное время. В качестве благодарности мы отключим Вам всю рекламу на сайте (укажите свой ник в строку Ваше имя)!

×
  
Magnet ссылка

Триада / Сезон: 2 / Серии: 1-6 из 16 (Дмитрий Дьяченко) [2021, Комедия, WEBRip-AVC] piratbit.org

Триада через торрент piratbit.org

Раздают: 1 [ 0 KB/s ] Качают: 1 [ 0 KB/s ]
Размер: 1.83 GB | Добавлен: 7 д. назад | Торрент скачан:11 раз
Скачать  

08-06-2021 02:55 Триада Скачать торрент  

Триада 2
Год выпуска: 2021
Страна: Россия
Выпущено: Comedy Club Production по заказу телеканала ТНТ
Жанр: Комедия
Продолжительность: ~ 00:25:00 (Серия)
Перевод: Не требуется
Субтитры: отсутствуют

Режиссер: Радда Новикова

rating

В ролях: Борис Дергачев, Дарья Мороз, Любовь Аксёнова, Анастасия Калашникова, Инга Оболдина, Кирилл Полухин, Александр Пташенчук, Ника Вайпер, Тимофей Трибунцев, Елена Шевченко, Виталия Корниенко, Лаура Пицхелаури

Описание: Простой российский мужик по имени Толик давно мечтал о детях. Вместе с женой Ритой он не вылезал из клиники ЭКО, вот только Рита не знала, что у Толика есть любовница Наташа. Чтобы раз и навсегда сделать выбор между Ритой и Наташей, Толик переспал со случайной танцовщицей Миланой в клубе, чтобы понять, перед кем ему будет стыдно. В итоге от Толика забеременели и Рита, и Наташа, и Милана. Толя хочет стать любящим отцом для всех своих детей, поэтому он лавирует между женщинами и обстоятельствами, постепенно впутываясь во все более странные и комичные ситуации. Когда казалось, что тяжелее Толику быть уже не может, все три его пассии решили рожать в один день в одном роддоме.

Качество: WEBRip-AVC
Формат: MKV

Видео: MPEG-4 AVC, ~ 1600 Кбит/с, 1024x576, 25 кадр/с
Аудио: 48.0 kHz, AC3 Dolby Digital, 2/0 (L,R) ch, ~ 192 kbps
скриншот  скриншот  скриншот  скриншот  скриншот  

General
Unique ID : 182724184450045592163208723616622203503 (0x897765D8D1092091A9DAB5D784AC526F)
Complete name : F:\Триада.S02.(2021).WEBRip.(AVC).Files-x\01.Triada.S02.(2021).WEBRip.(AVC).by.Серый1779.Files-x.mkv
Format : Matroska
Format version : Version 2
File size : 321 MiB
Duration : 25 min 3 s
Overall bit rate : 1 792 kb/s
Encoded date : UTC 2021-06-07 19:01:11
Writing application : mkvmerge v7.8.0 ('River Man') 32bit built on Apr 3 2015 12:11:22
Writing library : libebml v1.3.1 + libmatroska v1.4.2

Video
ID : 1
Format : AVC
Format/Info : Advanced Video Codec
Format profile : High@L4.1
Format settings : CABAC / 9 Ref Frames
Format settings, CABAC : Yes
Format settings, RefFrames : 9 frames
Codec ID : V_MPEG4/ISO/AVC
Duration : 25 min 3 s
Bit rate : 1 600 kb/s
Width : 1 024 pixels
Height : 576 pixels
Display aspect ratio : 16:9
Frame rate mode : Constant
Frame rate : 25.000 FPS
Color space : YUV
Chroma subsampling : 4:2:0
Bit depth : 8 bits
Scan type : Progressive
Bits/(Pixel*Frame) : 0.109
Stream size : 281 MiB (87%)
Writing library : x264 core 146 r2538 121396c
Encoding settings : cabac=1 / ref=9 / deblock=1:-2:-1 / analyse=0x3:0x133 / me=umh / subme=9 / psy=1 / psy_rd=1.00:0.15 / mixed_ref=1 / me_range=32 / chroma_me=1 / trellis=2 / 8x8dct=1 / cqm=0 / deadzone=21,11 / fast_pskip=0 / chroma_qp_offset=-3 / threads=18 / lookahead_threads=3 / sliced_threads=0 / nr=0 / decimate=1 / interlaced=0 / bluray_compat=0 / constrained_intra=0 / bframes=9 / b_pyramid=2 / b_adapt=2 / b_bias=0 / direct=1 / weightb=1 / open_gop=0 / weightp=2 / keyint=250 / keyint_min=25 / scenecut=40 / intra_refresh=0 / rc=2pass / mbtree=0 / bitrate=1600 / ratetol=1.0 / qcomp=0.60 / qpmin=0 / qpmax=69 / qpstep=4 / cplxblur=20.0 / qblur=0.5 / ip_ratio=1.40 / pb_ratio=1.30 / aq=2:1.00
Default : Yes
Forced : No
Color range : Limited
Color primaries : BT.709
Transfer characteristics : BT.709
Matrix coefficients : BT.709

Audio
ID : 2
Format : AC-3
Format/Info : Audio Coding 3
Format settings, Endianness : Big
Codec ID : A_AC3
Duration : 25 min 3 s
Bit rate mode : Constant
Bit rate : 192 kb/s
Channel(s) : 2 channels
Channel positions : Front: L R
Sampling rate : 48.0 kHz
Frame rate : 31.250 FPS (1536 SPF)
Bit depth : 16 bits
Compression mode : Lossy
Stream size : 34.4 MiB (11%)
Service kind : Complete Main
Default : Yes
Forced : No

Когда раздача ведётся путём добавления новых серий, при каждом добавлении создётся новый торрент. Чтобы начать докачку новой серии, пользователям необходимо сделать следующее:
(1) остановить скачивание,
(2) удалить старый торрент у себя из клиента (старые серии удалять не надо),
(3) скачать новый торрент и запустить его у себя в клиенте вместо старого, при этом указать клиенту путь в старую папку, куда и должно происходить скачивание новых серий.
Ваш клиент при этом должен произвести хеширование (проверку) старой папки (если не производит сам - помогите ему сделать это), и будет докачивать только те серии, которых у вас ещё нет. Старые серии при этом не удаляются, а продолжают раздаваться!
Eсли вы уже удалили старые серии, то предотвратить повторную закачку старых серий можно, отжав галочку в соответсвующих местах при запуске нового торрента. По возможности, желательно не удалять старые серии как можно дольше, чтобы релизёр не столько продолжал раздавать старые серии, а смог сконцентрироваться на новых.

piratbit.org



Скачать Триада через торрент https://i114.fastpic.ru/big/2021/0607/10/69f3711c0b3b1eb153963e282c70fa10.jpg Скачать фильм Триада через торрент бесплантно в хорошем качестве Описание: Простой российский мужик по имени Толик давно мечтал о детях. Вместе с женой Ритой он не вылезал из клиники ЭКО, вот только Рита ... 10 10 2
Торрент: Зарегистрирован [2021-06-16 00:38] · скачан: 11 раз
Статус: √ проверено
Размер: 1.83 GB
Как cкачать? Как скачать Триада через торрент | UTorrent

% Раздел Тема Автор DL S | L
TNT serials [ 2.05 GB ] Триада / Сезон: 2 / Серии: 1-6 из 16 [2021 WEBRip] bober100 Скачать
2 | 0
TNT serials [ 4.73 GB ] Триада / Сезон: 2 / Серии: 1-6 из 16 [2021 WEBRip 1080p] bober100 Скачать
3 | 2
TNT serials [ 3.22 GB ] Триада / Сезон: 2 / Серии: 1-6 из 16 [2021 WEBRip 720p] bober100 Скачать
4 | 1

28-11-2019 20:33  

Отключить всю рекламу на сайте

    Дорогой пользователь! Огромная просьба, поблагодарите релизера, оцените раздачу и оставьте свои комментарий, если Вы скачали Триада через торрент бесплатно! Внесите свою лепту в развитие PiratBit!
    Комментировать посты могут только пользователи прошедшие не сложную регистрацию
    Показать сообщения:    

    Триада через торрент
    Скачать бесплатно Триада
    Триада скачать торрент
    Триада смотреть онлайн
    Cкачать фильм Триада бесплатно
    Триада скачать торрент в хорошем качестве
    Триада смотреть онлайн бесплатно в хорошем качестве


    Вы не можете начинать темы
    Вы не можете отвечать на сообщения
    Вы не можете редактировать свои сообщения
    Вы не можете удалять свои сообщения
    Вы не можете голосовать в опросах
    Вы не можете прикреплять файлы к сообщениям
    Вы можете скачивать файлы