Достать ножи: Стеклянная луковица

MVO

Добыча

Дубляж

Уэнсдэй

1 сезон

Тор

Дубляж

13 клиническая

1 сезон

Жестокая ночь

MVO

Одни из нас

1 сезон

Deluxe

pack

Рекомендуем

30

Пиратка

ВАЖНО

ВАЖНО

Ghostwire

Пиратка

jed

RePack

nioh2

RePack

RDR2

RePack

NEED FOR SPEED™ PAYBACK

RePack

скачать торрент

Кинопоиск HD

Острые козырьки 6 сезон

6 сезон

FAR CRY 6

RePack

скачать торрент

Лицензия

скачать торрент

MVO

1

1 сезон

скачать торрент

1 сезон

скачать торрент

Лицензия

  

Заклятие 3: По воле дьявола / The Conjuring: The Devil Made Me Do It (Майкл Чавес) [2021, Ужасы, детектив, UHD WEB-DL-HEVC 2160p] Дубляж [iTunes] +MVO [HDRezka]

Заклятие 3: По воле дьявола через торрент piratbit.org

Размер: 15.24 GB | Добавлен: 1 год 6 мес. назад | Торрент скачан:153 раза
Смотреть онлайн | Скачать | Поддержите нас   

08-06-2021 04:01 Заклятие 3: По воле дьявола Скачать торрент  

Заклятие 3: По воле дьявола | The Conjuring: The Devil Made Me Do It
Год выпуска: 2021
Страна: США, Великобритания
Студия: New Line Cinema, Atomic Monster, The Safran Company
Жанр: Ужасы, детектив
Продолжительность: 01:51:47
Перевод(ы):
#1: Дублированный | iTunes
#2: Профессиональный многоголосый | HDRezka
Субтитры: Русские (2 x Forced, 2 x full), английские

Режиссер: Майкл Чавес

rating

В ролях: Патрик Уилсон, Вера Фармига, Руаири О Коннор, Сара Кэтрин Хук, Джулиан Хиллиард, Джон Ноубл, Эжени Бондюран, Шэннон Кук-Чун, Ронни Джин Блевинс, Кит А. Болден

Описание: Леденящая кровь история ужасающего убийства, которая поразила даже опытных исследователей паранормальных явлений Эда и Лоррейн Уорренов. Одно из их самых сенсационных дел началось с борьбы за душу юноши, а привело к тому, чего они ни разу не видели за свою практику — впервые в истории США подозреваемый в убийстве в свою защиту заявил, что был одержим демоном.

Качество: UHD WEB-DL-HEVC 2160p
Формат: MKV

Видео: 3840x2160 at 23.976 fps, MPEG-H HEVC HDR Video, ~ 17900 kbps avg
Аудио #01: 48 kHz, AC3, 5.1, 384 Kbps | Дублированный | iTunes | RUS |
Аудио #02: 48 kHz, AC3, 5.1, 448 Kbps | Профессиональный многоголосый | HDRezka | RUS |
Аудио #03: 48 kHz, E-AC3+Atmos, 5.1, 768 Kbps | Оригинал | ENG |
скриншот  скриншот  скриншот  скриншот  

General
Unique ID : 252609395119221905976570265369158889218 (0xBE0ACCC19E07C68C9AE19F31BA4C2F02)
Complete name : F:VideoThe.Conjuring.the.Devil.Made.Me.Do.It.2021.WEB-DL.2160p.HDR.seleZen.mkv
Format : Matroska
Format version : Version 4
File size : 15.2 GiB
Duration : 1 h 51 min
Overall bit rate : 19.5 Mb/s
Movie name : The Conjuring the Devil Made Me Do It 2021 from seleZen
Encoded date : UTC 2021-07-06 00:27:36
Writing application : mkvmerge v55.0.0 ('Waiting For Space') 64-bit
Writing library : libebml v1.4.2 + libmatroska v1.6.4

Video
ID : 1
Format : HEVC
Format/Info : High Efficiency Video Coding
Format profile : Main 10@L5@Main
HDR format : SMPTE ST 2086, HDR10 compatible
Codec ID : V_MPEGH/ISO/HEVC
Duration : 1 h 51 min
Bit rate : 17.9 Mb/s
Width : 3 840 pixels
Height : 2 160 pixels
Display aspect ratio : 16:9
Frame rate mode : Constant
Frame rate : 23.976 (24000/1001) FPS
Color space : YUV
Chroma subsampling : 4:2:0
Bit depth : 10 bits
Bits/(Pixel*Frame) : 0.090
Stream size : 14.0 GiB (92%)
Writing library : x265 3.4hy:[Linux][GCC 7.5.0][64 bit] 10bit
Encoding settings : cpuid=1111039 / frame-threads=1 / wpp / no-pmode / no-pme / no-psnr / no-ssim / log-level=2 / input-csp=1 / input-res=3840x2160 / interlace=0 / total-frames=0 / level-idc=0 / high-tier=1 / uhd-bd=0 / ref=4 / no-allow-non-conformance / repeat-headers / annexb / no-aud / no-hrd / info / hash=0 / no-temporal-layers / no-open-gop / min-keyint=96 / keyint=96 / gop-lookahead=0 / bframes=3 / b-adapt=2 / b-pyramid / bframe-bias=0 / rc-lookahead=25 / lookahead-slices=4 / scenecut=40 / hist-scenecut=0 / radl=0 / no-splice / no-intra-refresh / ctu=64 / min-cu-size=8 / rect / no-amp / max-tu-size=32 / tu-inter-depth=1 / tu-intra-depth=1 / limit-tu=0 / rdoq-level=2 / dynamic-rd=0.00 / no-ssim-rd / signhide / no-tskip / nr-intra=0 / nr-inter=0 / no-constrained-intra / strong-intra-smoothing / max-merge=3 / limit-refs=3 / limit-modes / me=3 / subme=3 / merange=57 / temporal-mvp / no-frame-dup / no-hme / weightp / no-weightb / no-analyze-src-pics / deblock=0:0 / sao / no-sao-non-deblock / rd=4 / selective-sao=4 / no-early-skip / rskip / no-fast-intra / no-tskip-fast / no-cu-lossless / no-b-intra / no-splitrd-skip / rdpenalty=0 / psy-rd=2.00 / psy-rdoq=1.00 / no-rd-refine / no-lossless / cbqpoffs=0 / crqpoffs=0 / rc=abr / bitrate=18000 / qcomp=0.60 / qpstep=4 / stats-write=0 / stats-read=2 / cplxblur=20.0 / qblur=0.5 / vbv-maxrate=24500 / vbv-bufsize=24500 / vbv-init=0.6 / vbv-end=0.6 / vbv-end-fr-adj=0.0 / ipratio=1.40 / pbratio=1.30 / aq-mode=2 / aq-strength=1.00 / cutree / zone-count=0 / no-strict-cbr / qg-size=32 / no-rc-grain / qpmax=69 / qpmin=0 / no-const-vbv / sar=0 / overscan=0 / videoformat=5 / range=0 / colorprim=9 / transfer=16 / colormatrix=9 / chromaloc=0 / display-window=0 / master-display=G(13250,34500)B(7500,3000)R(34000,16000)WP(15635,16450)L(40000000,50) / cll=514,91 / min-luma=0 / max-luma=1023 / log2-max-poc-lsb=8 / vui-timing-info / vui-hrd-info / no-concatenation / slices=1 / no-opt-qp-pps / no-opt-ref-list-length-pps / no-multi-pass-opt-rps / scenecut-bias=0.05 / hist-threshold=0.01 / no-opt-cu-delta-qp / no-aq-motion / hdr10 / no-hdr10-opt / no-dhdr10-opt / no-idr-recovery-sei / analysis-reuse-level=0 / analysis-save-reuse-level=0 / analysis-load-reuse-level=0 / scale-factor=0 / refine-intra=0 / refine-inter=0 / refine-mv=1 / refine-ctu-distortion=0 / no-limit-sao / ctu-info=0 / no-lowpass-dct / refine-analysis-type=0 / copy-pic=1 / max-ausize-factor=1.0 / no-dynamic-refine / no-single-sei / no-hevc-aq / no-svt / no-field / qp-adaptation-range=1.00 / no-scenecut-aware-qpconformance-window-offsets / right=0 / bottom=0 / decoder-max-rate=0
Default : Yes
Forced : No
Color range : Limited
Color primaries : BT.2020
Transfer characteristics : PQ
Matrix coefficients : BT.2020 non-constant
Mastering display color pri : Display P3
Mastering display luminance : min: 0.0050 cd/m2, max: 4000 cd/m2
Maximum Content Light Level : 514 cd/m2
Maximum Frame-Average Light : 91 cd/m2

Audio #1
ID : 2
Format : AC-3
Format/Info : Audio Coding 3
Commercial name : Dolby Digital
Codec ID : A_AC3
Duration : 1 h 51 min
Bit rate mode : Constant
Bit rate : 384 kb/s
Channel(s) : 6 channels
Channel layout : L R C LFE Ls Rs
Sampling rate : 48.0 kHz
Frame rate : 31.250 FPS (1536 SPF)
Compression mode : Lossy
Stream size : 307 MiB (2%)
Title : Дубляж [iTunes]
Language : Russian
Service kind : Complete Main
Default : Yes
Forced : Yes

Audio #2
ID : 3
Format : AC-3
Format/Info : Audio Coding 3
Commercial name : Dolby Digital
Codec ID : A_AC3
Duration : 1 h 51 min
Bit rate mode : Constant
Bit rate : 448 kb/s
Channel(s) : 6 channels
Channel layout : L R C LFE Ls Rs
Sampling rate : 48.0 kHz
Frame rate : 31.250 FPS (1536 SPF)
Compression mode : Lossy
Stream size : 358 MiB (2%)
Title : MVO [HDRezka]
Language : Russian
Service kind : Complete Main
Default : No
Forced : No

Audio #3
ID : 4
Format : E-AC-3 JOC
Format/Info : Enhanced AC-3 with Joint Object Coding
Commercial name : Dolby Digital Plus with Dolby Atmos
Codec ID : A_EAC3
Duration : 1 h 51 min
Bit rate mode : Constant
Bit rate : 768 kb/s
Channel(s) : 6 channels
Channel layout : L R C LFE Ls Rs
Sampling rate : 48.0 kHz
Frame rate : 31.250 FPS (1536 SPF)
Compression mode : Lossy
Stream size : 614 MiB (4%)
Title : Original
Language : English
Service kind : Complete Main
Default : No
Forced : No
Complexity index : 16
Number of dynamic objects : 15
Bed channel count : 1 channel
Bed channel configuration : LFE

Text #1
ID : 5
Format : UTF-8
Codec ID : S_TEXT/UTF8
Codec ID/Info : UTF-8 Plain Text
Duration : 1 h 45 min
Bit rate : 4 b/s
Count of elements : 65
Stream size : 3.82 KiB (0%)
Title : Forced
Language : Russian
Default : Yes
Forced : Yes

Text #2
ID : 6
Format : UTF-8
Codec ID : S_TEXT/UTF8
Codec ID/Info : UTF-8 Plain Text
Duration : 1 h 45 min
Bit rate : 3 b/s
Count of elements : 49
Stream size : 2.63 KiB (0%)
Title : Forced [HDRezka]
Language : Russian
Default : No
Forced : No

Text #3
ID : 7
Format : UTF-8
Codec ID : S_TEXT/UTF8
Codec ID/Info : UTF-8 Plain Text
Duration : 1 h 50 min
Bit rate : 61 b/s
Count of elements : 978
Stream size : 50.3 KiB (0%)
Title : Full
Language : Russian
Default : No
Forced : No

Text #4
ID : 8
Format : UTF-8
Codec ID : S_TEXT/UTF8
Codec ID/Info : UTF-8 Plain Text
Duration : 1 h 49 min
Bit rate : 56 b/s
Count of elements : 1010
Stream size : 45.6 KiB (0%)
Title : Full v.2
Language : Russian
Default : No
Forced : No

Text #5
ID : 9
Format : UTF-8
Codec ID : S_TEXT/UTF8
Codec ID/Info : UTF-8 Plain Text
Duration : 1 h 45 min
Bit rate : 37 b/s
Count of elements : 1021
Stream size : 29.0 KiB (0%)
Title : Full
Language : English
Default : No
Forced : No

Text #6
ID : 10
Format : UTF-8
Codec ID : S_TEXT/UTF8
Codec ID/Info : UTF-8 Plain Text
Duration : 1 h 45 min
Bit rate : 43 b/s
Count of elements : 1239
Stream size : 34.1 KiB (0%)
Title : SDH
Language : English
Default : No
Forced : No




Скачать Заклятие 3: По воле дьявола через торрент https://i115.fastpic.ru/big/2021/0706/de/99263bf76dbaf29f5e24354b9916c8de.jpg Скачать, смотреть онлайн Заклятие 3: По воле дьявола бесплантно в хорошем качестве Описание: Леденящая кровь история ужасающего убийства, которая поразила даже опытных исследователей паранормальных явлений Эда и Лоррейн ... 10 10 13
Торрент: Зарегистрирован [2021-07-06 05:38] · скачан: 153 раз
Статус: √ проверено
Размер: 15.24 GB
Как cкачать? Как скачать Заклятие 3: По воле дьявола через торрент | UTorrent

% Раздел Тема Автор DL S | L
Ultra HD (UHD: 2K, 4K, 8K) [ 19.9 GB ] Заклятие 3: По воле дьявола / The Conjuring: The Devil Made Me Do It | Пифагор | 2160p, (SDR bober100 Скачать
1 | 0
Ultra HD (UHD: 2K, 4K, 8K) [ 48.8 GB ] Заклятие 3: По воле дьявола / The Conjuring: The Devil Made Me Do It | Пифагор | 2160p bober100 Скачать
1 | 0
Фильмы 2021 [DVDrip, WEB-DLRip, HDrip] (DUB, MVO) [ 2.18 GB ] Заклятие 3: По воле дьявола / The Conjuring: The Devil Made Me Do It | Пифагор | BDRip Twi7ter Скачать
1 | 0
Фильмы 2021 [DVDrip, WEB-DLRip, HDrip] (DUB, MVO) [ 1.46 GB ] Заклятие 3: По воле дьявола / The Conjuring: The Devil Made Me Do It | Пифагор | BDRip Twi7ter Скачать
6 | 1
Фильмы 2021 [DVDrip, WEB-DLRip, HDrip] (DUB, MVO) [ 2.13 GB ] Заклятие 3: По воле дьявола / The Conjuring: The Devil Made Me Do It | iTunes | BDRip bober100 Скачать
1 | 0
Фильмы (WEB-DL 720p, 1080p) [ 7.66 GB ] Заклятие 3: По воле дьявола / The Conjuring: The Devil Made Me Do It | iTunes | 1080p bober100 Скачать
3 | 0
Фильмы 2021 [DVDrip, WEB-DLRip, HDrip] (DUB, MVO) [ 1.41 GB ] Заклятие 3: По воле дьявола / The Conjuring: The Devil Made Me Do It | iTunes | BDRip bober100 Скачать
1 | 0

28-11-2019 20:33  


Отключить вcю реклaмy на сайте, в т.ч. и в плеере онлайн просмотра!

    Дорогой пользователь! Огромная просьба, поблагодарите релизера, оцените раздачу и оставьте свои комментарий, если Вы скачали Заклятие 3: По воле дьявола через торрент бесплатно!!
    Комментировать посты могут только пользователи прошедшие не сложную регистрацию
    Показать сообщения:    


    Заклятие 3: По воле дьявола через торрент
    Скачать бесплатно Заклятие 3: По воле дьявола
    Заклятие 3: По воле дьявола скачать торрент
    Заклятие 3: По воле дьявола смотреть онлайн
    Cкачать фильм Заклятие 3: По воле дьявола бесплатно
    Заклятие 3: По воле дьявола скачать торрент в хорошем качестве
    Заклятие 3: По воле дьявола смотреть онлайн бесплатно в хорошем качестве
    Вы не можете начинать темы
    Вы не можете отвечать на сообщения
    Вы не можете редактировать свои сообщения
    Вы не можете удалять свои сообщения
    Вы не можете голосовать в опросах
    Вы не можете прикреплять файлы к сообщениям
    Вы можете скачивать файлы
    Заклятие 3: По воле дьявола / The Conjuring: The Devil Made Me Do It [2021, Ужасы, детектив, UHD WEB-DL-HEVC 2160p] Дубляж [iTunes] +MVO [HDRezka] смотреть онлайн, скачать торрент picoco.icu