1 сезон

3 сезон

iTunes

1

iTunes

DUB Netflix

iTunes

13

1 сезон

RePack

30

Deluxe

pack

Легкие деньги

ВАЖНО

ИГРА 18+

pack

RePack

MK11

RePack

jed

RePack

fifa19

RePack

RDR2

RePack

NEED FOR SPEED™ PAYBACK

4 сезон

9 сезон

Бесстыжие 9 сезон

Все сериалы

все сериалы на PB.wtf

RePack

FAR CRY 5

Anonymous, доброй ночи, мы не успеваем до 1 числа собрать деньги на оплату серверов, помогите нам пожалуйста в это трудное время. В качестве благодарности мы отключим Вам всю рекламу на сайте (укажите свой ник в строку Ваше имя)!

×
  
Magnet ссылка

Заклятие 3: По воле дьявола / The Conjuring: The Devil Made Me Do It (Майкл Чавес) [2021, Ужасы, детектив, WEBRip 1080p] DVO [Pazl Voice] piratbit.org

Заклятие 3: По воле дьявола через торрент piratbit.org

Раздают: 44 [ 1 MB/s ]
Размер: 7.37 GB | Добавлен: 11 д. назад | Торрент скачан:455 раз
Скачать  

08-06-2021 04:06 Заклятие 3: По воле дьявола Скачать торрент  

Заклятие 3: По воле дьявола | The Conjuring: The Devil Made Me Do It
Год выпуска: 2021
Страна: США, Великобритания
Студия: New Line Cinema, Atomic Monster, The Safran Company
Жанр: Ужасы, детектив
Продолжительность: 01:51:51
Перевод: Любительский (двухголосый) | Pazl Voice
Субтитры: Русские, английские

Режиссер: Майкл Чавес

rating

В ролях: Патрик Уилсон, Вера Фармига, Руаири О Коннор, Сара Кэтрин Хук, Джулиан Хиллиард, Джон Ноубл, Эжени Бондюран, Шэннон Кук-Чун, Ронни Джин Блевинс, Кит А. Болден

Описание: Леденящая кровь история ужасающего убийства, которая поразила даже опытных исследователей паранормальных явлений Эда и Лоррейн Уорренов. Одно из их самых сенсационных дел началось с борьбы за душу юноши, а привело к тому, чего они ни разу не видели за свою практику — впервые в истории США подозреваемый в убийстве в свою защиту заявил, что был одержим демоном.

Качество: WEBRip 1080p
Формат: MKV

Видео: MPEG-4 AVC, 8250 Кбит/с, 1920x816
Аудио#1: AC3, 6 ch, 448 Kbps - Русский | Tnx.KinoPub | Удаление рекламы: JNS82 и т.д
Аудио#2: E-AC3, 6 ch, 768 Kbps - Английский
скриншот  скриншот  скриншот  скриншот  скриншот  

Общее
Уникальный идентификатор : 38748900154469992610332881990654469424 (0x1D26C4473C1A98E0BE21F658325DA530)
Полное имя : Заклятие 3-По.воле.дьявола.2021.WEBRip.1080p_KinoPub.mkv
Формат : Matroska
Версия формата : Version 4
Размер файла : 7,37 Гбайт
Продолжительность : 1 ч. 51 м.
Режим общего битрейта : Переменный
Общий поток : 9 427 Кбит/сек
Название фильма : Заклятие 3:По.воле.дьявола.2021.WEBRip.1080p_KinoPub
Дата кодирования : UTC 2021-06-07 12:08:21
Программа кодирования : mkvmerge v53.0.0 ('Fool's Gold') 64-bit
Библиотека кодирования : libebml v1.4.1 + libmatroska v1.6.2

Видео
Идентификатор : 1
Формат : AVC
Формат/Информация : Advanced Video Codec
Профиль формата : High@L4
Настройки формата : CABAC / 4 Ref Frames
Параметр CABAC формата : Да
Параметр RefFrames формата : 4 кадра
Идентификатор кодека : V_MPEG4/ISO/AVC
Продолжительность : 1 ч. 51 м.
Вид битрейта : Переменный
Битрейт : 8 250 Кбит/сек
Максимальный битрейт : 12,4 Мбит/сек
Ширина : 1 920 пикселей
Высота : 816 пикселей
Соотношение сторон : 2,35:1
Режим частоты кадров : Постоянный
Частота кадров : 23,976 (24000/1001) кадра/сек
Цветовое пространство : YUV
Субдискретизация насыщенности : 4:2:0
Битовая глубина : 8 бит
Тип развёртки : Прогрессивная
Бит/(Пиксели*Кадры) : 0.220
Размер потока : 6,41 Гбайт (87%)
Библиотека кодирования : x264 core 157 r2965 861cec4
Настройки программы : cabac=1 / ref=4 / deblock=1:0:0 / analyse=0x3:0x113 / me=hex / subme=7 / psy=1 / psy_rd=1.00:0.00 / mixed_ref=1 / me_range=16 / chroma_me=1 / trellis=1 / 8x8dct=1 / cqm=0 / deadzone=21,11 / fast_pskip=1 / chroma_qp_offset=-2 / threads=25 / lookahead_threads=4 / sliced_threads=0 / nr=0 / decimate=1 / interlaced=0 / bluray_compat=0 / constrained_intra=0 / bframes=3 / b_pyramid=2 / b_adapt=1 / b_bias=0 / direct=1 / weightb=1 / open_gop=0 / weightp=2 / keyint=96 / keyint_min=96 / scenecut=40 / intra_refresh=0 / rc_lookahead=40 / rc=2pass / mbtree=1 / bitrate=8250 / ratetol=1.0 / qcomp=0.60 / qpmin=0 / qpmax=69 / qpstep=4 / cplxblur=20.0 / qblur=0.5 / vbv_maxrate=12375 / vbv_bufsize=6187 / nal_hrd=vbr / filler=0 / ip_ratio=1.40 / aq=1:1.00
Default : Да
Forced : Нет
Цветовой диапазон : Limited
Основные цвета : BT.709
Характеристики трансфера : BT.709
Коэффициенты матрицы : BT.709

Аудио #1
Идентификатор : 2
Формат : AC-3
Формат/Информация : Audio Coding 3
Коммерческое название : Dolby Digital
Идентификатор кодека : A_AC3
Продолжительность : 1 ч. 51 м.
Вид битрейта : Постоянный
Битрейт : 448 Кбит/сек
Каналы : 6 каналов
Channel layout : L R C LFE Ls Rs
Частота : 48,0 КГц
Частота кадров : 31,250 кадров/сек (1536 SPF)
Метод сжатия : С потерями
Размер потока : 358 Мбайт (5%)
Заголовок : [DVO] Pazl Voice | KinoPub
Язык : Russian
Service kind : Complete Main
Default : Да
Forced : Нет

Аудио #2
Идентификатор : 3
Формат : E-AC-3 JOC
Формат/Информация : Enhanced AC-3 with Joint Object Coding
Коммерческое название : Dolby Digital Plus with Dolby Atmos
Идентификатор кодека : A_EAC3
Продолжительность : 1 ч. 51 м.
Вид битрейта : Постоянный
Битрейт : 768 Кбит/сек
Каналы : 6 каналов
Channel layout : L R C LFE Ls Rs
Частота : 48,0 КГц
Частота кадров : 31,250 кадров/сек (1536 SPF)
Метод сжатия : С потерями
Размер потока : 614 Мбайт (8%)
Язык : English
Service kind : Complete Main
Default : Нет
Forced : Нет
Complexity index : 16
Number of dynamic objects : 15
Bed channel count : 1 канал
Bed channel configuration : LFE

Текст #1
Идентификатор : 4
Формат : UTF-8
Идентификатор кодека : S_TEXT/UTF8
Идентификатор кодека/Информация : UTF-8 Plain Text
Продолжительность : 1 ч. 49 м.
Битрейт : 56 бит/сек
Count of elements : 1010
Размер потока : 45,6 Кбайт (0%)
Язык : Russian
Default : Нет
Forced : Нет

Текст #2
Идентификатор : 5
Формат : UTF-8
Идентификатор кодека : S_TEXT/UTF8
Идентификатор кодека/Информация : UTF-8 Plain Text
Продолжительность : 1 ч. 45 м.
Битрейт : 47 бит/сек
Count of elements : 1239
Размер потока : 37,2 Кбайт (0%)
Заголовок : English
Язык : English
Default : Нет
Forced : Нет

piratbit.org



Скачать Заклятие 3: По воле дьявола через торрент http://a.radikal.ru/a22/2106/c6/88eac81c1bfc.jpg Скачать фильм Заклятие 3: По воле дьявола через торрент бесплантно в хорошем качестве Описание: Леденящая кровь история ужасающего убийства, которая поразила даже опытных исследователей паранормальных явлений Эда и Лоррейн ... 9.9 10 19
Info! Золотая раздача, скачанное не засчитывается.
Торрент: Зарегистрирован [2021-06-08 04:06] · скачан: 455 раз
Статус: T временная
Размер: 7.37 GB
Как cкачать? Как скачать Заклятие 3: По воле дьявола через торрент | UTorrent

% Раздел Тема Автор DL S | L
Фильмы 2021 [DVDrip, WEB-DLRip, HDrip] (DUB, MVO) [ 2.05 GB ] Заклятие 3: По воле дьявола / The Conjuring: The Devil Made Me Do It [2021 WEBRip-AVC] MVO [HDRezka Studio] от MediaBit Lithuania Скачать
41 | 2
T Ultra HD (UHD: 2K, 4K, 8K) — видео сверхвысокой чёткости [ 14.94 GB ] Заклятие 3: По воле дьявола / The Conjuring: The Devil Made Me Do It [2021 WEB-DL-HEVC 2160p] DVO [Pazl Voice] bober100 Скачать
10 | 0

28-11-2019 20:33  

Отключить всю рекламу на сайте

08-06-2021 14:38 Заклятие 3: По воле дьявола Скачать торрент  

Почему нельзя прикреплять сразу: первую и вторую часть, чтоб не искатьpiratbit.org



08-06-2021 14:38 Заклятие 3: По воле дьявола Скачать торрент  

на раздачу станьте !!!piratbit.org



08-06-2021 19:37 Заклятие 3: По воле дьявола Скачать торрент  

норм кинчикpiratbit.org



08-06-2021 20:45 Заклятие 3: По воле дьявола Скачать торрент  

пойду в кино, но спасибо за старанияpiratbit.org



09-06-2021 08:08 Заклятие 3: По воле дьявола Скачать торрент  

Фильм понравился, хотя не много слабее,чем первые две части. Очень порадовало качество и перевод. Думал сначала не портить впечатление перед походом в кино, но не прогадал, что посмотрел. Теперь в кино не пойду. Буду ждать официальный звук и в коллекцию! Спасибо большое за труды автору релиза!piratbit.org



    Дорогой пользователь! Огромная просьба, поблагодарите релизера, оцените раздачу и оставьте свои комментарий, если Вы скачали Заклятие 3: По воле дьявола через торрент бесплатно! Внесите свою лепту в развитие PiratBit!
    Комментировать посты могут только пользователи прошедшие не сложную регистрацию
    Показать сообщения:    

    Заклятие 3: По воле дьявола через торрент
    Скачать бесплатно Заклятие 3: По воле дьявола
    Заклятие 3: По воле дьявола скачать торрент
    Заклятие 3: По воле дьявола смотреть онлайн
    Cкачать фильм Заклятие 3: По воле дьявола бесплатно
    Заклятие 3: По воле дьявола скачать торрент в хорошем качестве
    Заклятие 3: По воле дьявола смотреть онлайн бесплатно в хорошем качестве


    Вы не можете начинать темы
    Вы не можете отвечать на сообщения
    Вы не можете редактировать свои сообщения
    Вы не можете удалять свои сообщения
    Вы не можете голосовать в опросах
    Вы не можете прикреплять файлы к сообщениям
    Вы можете скачивать файлы