1 сезон

3 сезон

iTunes

1

iTunes

DUB Netflix

iTunes

13

1 сезон

RePack

30

Deluxe

pack

Легкие деньги

ВАЖНО

ИГРА 18+

pack

RePack

MK11

RePack

jed

RePack

fifa19

RePack

RDR2

RePack

NEED FOR SPEED™ PAYBACK

4 сезон

9 сезон

Бесстыжие 9 сезон

Все сериалы

все сериалы на PB.wtf

RePack

FAR CRY 5

Anonymous, добрый день, мы не успеваем до 1 числа собрать деньги на оплату серверов, помогите нам пожалуйста в это трудное время. В качестве благодарности мы отключим Вам всю рекламу на сайте (укажите свой ник в строку Ваше имя)!

×
  
Magnet ссылка

Макс Энгер - Всегда начеку / Макс Ангер / Max Anger - With One Eye Open / Сезон: 1 / Серии: 1-8 из 8 (Лиза Фарзане, Йеспер В. Нильсен) [2021, боевик, драма, триллер, WEB-DL 1080p] [MVO] (HDRezka Studio) piratbit.org

Макс Энгер - Всегда начеку через торрент piratbit.org

Раздают: 6 [ 96 KB/s ]
Размер: 14.34 GB | Добавлен: 8 д. назад | Торрент скачан:30 раз
Скачать  

08-06-2021 08:31 Макс Энгер - Всегда начеку Скачать торрент  

Макс Энгер - Всегда начеку / Макс Ангер / Max Anger - With One Eye Open

✦ Год выхода: 2021
✦ Выпущено: Швеция
✦ Жанр: боевик, драма, триллер
✦ Продолжительность: ~ 00:45:00
✦ Перевод: Профессиональный (многоголосый) *HDRezka Studio
✦ Субтитры: русские (forced, full), финские, эстонские, английские, польские, норвежские, шведские и др.

Режиссеры: Лиза Фарзане, Йеспер В. Нильсен

В ролях: Николай Антонов, Малин Крепин, Анника Халлин, Адам Лундгрен, Йохан Рхеборг, Лайнус Уолгрен, Юэль Спира, Иева Андреевайте, Александр Рапопорт, Эвин Ахмад
Описание:
Макс Ангер, бывший элитный солдат, получил шанс на мирную жизнь и даже влюбился в девушку по имени Па́ши, сотрудницу аналитического центра «Вектор», ориентированного на сбор данных о России. Но однажды девушка внезапно исчезает в Санкт-Петербурге, и Макс отправляется на её поиски, погружаясь в мир международных интриг.

rating

скриншот  

Информация о файле

✦ Качество: WEB-DL 1080p
✦ Формат: MKV
✦ Видео кодек: x.264
✦ Аудио кодек: AC3
✦ Видео: AVC, 1920x1080, ~4 835 Kbps, 25 fps
✦ Аудио #1 Rus: 48 kHz, AC3, 6 ch, ~448.00 kbps *HDRezka Studio
✦ Аудио #2 Swe: 48 kHz, АС3, 6 ch, ~384 kbps
 скриншот   скриншот  скриншот   скриншот   скриншот   скриншот  
General
Unique ID : 203596903667347706946311199042555374918 (0x992B565BA2B071618E06287B59BC6D46)
Complete name : D:\КИНО\Max Anger.S01. WEB-DL(1080p)\Max Anger.S01E01.WEB-DL(1080p). [MVO] (HDRezka Studio).xz.mkv
Format : Matroska
Format version : Version 4 / Version 2
File size : 1.79 GiB
Duration : 44mn 26s
Overall bit rate mode : Variable
Overall bit rate : 5 781 Kbps
Movie name : Max Anger.S01E01.WEB-DL(1080p). [MVO] (HDRezka Studio).xz
Encoded date : UTC 2021-06-10 06:56:11
Writing application : mkvmerge v6.1.0 ('Old Devil') built on Mar 2 2013 14:32:37
Writing library : libebml v1.3.0 + libmatroska v1.4.0
DURATION : 00:43:17.120000000
NUMBER_OF_FRAMES : 373
NUMBER_OF_BYTES : 14150
_STATISTICS_WRITING_APP : mkvmerge v48.0.0 ('Fortress Around Your Heart') 64-bit
_STATISTICS_WRITING_DATE_UTC : 2021-06-07 00:46:25
_STATISTICS_TAGS : BPS DURATION NUMBER_OF_FRAMES NUMBER_OF_BYTES

Video
ID : 1
Format : AVC
Format/Info : Advanced Video Codec
Format profile : High@L4.1
Format settings, CABAC : Yes
Format settings, ReFrames : 3 frames
Format settings, GOP : M=3, N=50
Codec ID : V_MPEG4/ISO/AVC
Duration : 44mn 26s
Bit rate mode : Variable
Bit rate : 4 834 Kbps
Maximum bit rate : 7 200 Kbps
Width : 1 920 pixels
Height : 1 080 pixels
Display aspect ratio : 16:9
Frame rate mode : Constant
Frame rate : 25.000 fps
Color space : YUV
Chroma subsampling : 4:2:0
Bit depth : 8 bits
Scan type : Progressive
Bits/(Pixel*Frame) : 0.093
Stream size : 1.50 GiB (84%)
Title : Max Anger.S01E01.WEB-DL(1080p). [MVO] (HDRezka Studio).xz
Default : Yes
Forced : No

Audio #1
ID : 2
Format : AC-3
Format/Info : Audio Coding 3
Mode extension : CM (complete main)
Format settings, Endianness : Big
Codec ID : A_AC3
Duration : 44mn 26s
Bit rate mode : Constant
Bit rate : 448 Kbps
Channel(s) : 6 channels
Channel positions : Front: L C R, Side: L R, LFE
Sampling rate : 48.0 KHz
Compression mode : Lossy
Stream size : 142 MiB (8%)
Title : HDRezka Studio
Language : Russian
Default : Yes
Forced : No

Audio #2
ID : 3
Format : AC-3
Format/Info : Audio Coding 3
Mode extension : CM (complete main)
Format settings, Endianness : Big
Codec ID : A_AC3
Duration : 44mn 26s
Bit rate mode : Constant
Bit rate : 384 Kbps
Channel(s) : 6 channels
Channel positions : Front: L C R, Side: L R, LFE
Sampling rate : 48.0 KHz
Compression mode : Lossy
Stream size : 122 MiB (7%)
Language : Swedish
Default : No
Forced : No

Text #1
ID : 4
Format : UTF-8
Codec ID : S_TEXT/UTF8
Codec ID/Info : UTF-8 Plain Text
Title : rus (forced)
Language : Russian
Default : Yes
Forced : No

Text #2
ID : 5
Format : UTF-8
Codec ID : S_TEXT/UTF8
Codec ID/Info : UTF-8 Plain Text
Language : Danish
Default : No
Forced : No

Text #3
ID : 6
Format : UTF-8
Codec ID : S_TEXT/UTF8
Codec ID/Info : UTF-8 Plain Text
Language : English
Default : No
Forced : No

Text #4
ID : 7
Format : UTF-8
Codec ID : S_TEXT/UTF8
Codec ID/Info : UTF-8 Plain Text
Language : Estonian
Default : No
Forced : No

Text #5
ID : 8
Format : UTF-8
Codec ID : S_TEXT/UTF8
Codec ID/Info : UTF-8 Plain Text
Language : Finnish
Default : No
Forced : No

Text #6
ID : 9
Format : UTF-8
Codec ID : S_TEXT/UTF8
Codec ID/Info : UTF-8 Plain Text
Language : Icelandic
Default : No
Forced : No

Text #7
ID : 10
Format : UTF-8
Codec ID : S_TEXT/UTF8
Codec ID/Info : UTF-8 Plain Text
Language : Lithuanian
Default : No
Forced : No

Text #8
ID : 11
Format : UTF-8
Codec ID : S_TEXT/UTF8
Codec ID/Info : UTF-8 Plain Text
Language : Latvian
Default : No
Forced : No

Text #9
ID : 12
Format : UTF-8
Codec ID : S_TEXT/UTF8
Codec ID/Info : UTF-8 Plain Text
Language : Norwegian
Default : No
Forced : No

Text #10
ID : 13
Format : UTF-8
Codec ID : S_TEXT/UTF8
Codec ID/Info : UTF-8 Plain Text
Language : Polish
Default : No
Forced : No

Text #11
ID : 14
Format : UTF-8
Codec ID : S_TEXT/UTF8
Codec ID/Info : UTF-8 Plain Text
Language : Russian
Default : No
Forced : No

Text #12
ID : 15
Format : UTF-8
Codec ID : S_TEXT/UTF8
Codec ID/Info : UTF-8 Plain Text
Language : Swedish
Default : No
Forced : No
piratbit.org



Скачать Макс Энгер - Всегда начеку через торрент https://i4.imageban.ru/out/2021/06/08/c16491870e0362e3610eebe0d6586804.jpg Скачать фильм Макс Энгер - Всегда начеку через торрент бесплантно в хорошем качестве Описание:Макс Ангер, бывший элитный солдат, получил шанс на мирную жизнь и даже влюбился в девушку по имени Па́ши, сотрудницу ... 8.5 10 6
Торрент: Зарегистрирован [2021-06-10 11:52] · скачан: 30 раз
Статус: √ проверено
Размер: 14.34 GB
Как cкачать? Как скачать Макс Энгер - Всегда начеку через торрент | UTorrent

28-11-2019 20:33  

Отключить всю рекламу на сайте


10-06-2021 19:35 Макс Энгер - Всегда начеку Скачать торрент  

На первом скрине Стейтем Джейсон)))piratbit.org
Kkillermax2013 писал(а):

всегда знал что он русский )) но чтобы еще и мент



    Дорогой пользователь! Огромная просьба, поблагодарите релизера, оцените раздачу и оставьте свои комментарий, если Вы скачали Макс Энгер - Всегда начеку через торрент бесплатно! Внесите свою лепту в развитие PiratBit!
    Комментировать посты могут только пользователи прошедшие не сложную регистрацию
    Показать сообщения:    

    Макс Энгер - Всегда начеку через торрент
    Скачать бесплатно Макс Энгер - Всегда начеку
    Макс Энгер - Всегда начеку скачать торрент
    Макс Энгер - Всегда начеку смотреть онлайн
    Cкачать фильм Макс Энгер - Всегда начеку бесплатно
    Макс Энгер - Всегда начеку скачать торрент в хорошем качестве
    Макс Энгер - Всегда начеку смотреть онлайн бесплатно в хорошем качестве


    Вы не можете начинать темы
    Вы не можете отвечать на сообщения
    Вы не можете редактировать свои сообщения
    Вы не можете удалять свои сообщения
    Вы не можете голосовать в опросах
    Вы не можете прикреплять файлы к сообщениям
    Вы можете скачивать файлы