1 сезон

3 сезон

iTunes

1

iTunes

DUB Netflix

iTunes

13

1 сезон

RePack

30

Deluxe

pack

Легкие деньги

ВАЖНО

ИГРА 18+

pack

RePack

MK11

RePack

jed

RePack

fifa19

RePack

RDR2

RePack

NEED FOR SPEED™ PAYBACK

4 сезон

9 сезон

Бесстыжие 9 сезон

Все сериалы

все сериалы на PB.wtf

RePack

FAR CRY 5

Anonymous, доброй ночи, мы не успеваем до 1 числа собрать деньги на оплату серверов, помогите нам пожалуйста в это трудное время. В качестве благодарности мы отключим Вам всю рекламу на сайте (укажите свой ник в строку Ваше имя)!

×
  
Magnet ссылка

Лекарь: Ученик Авиценны / The Physician (Филипп Штёльцль) [2013 г., драма, приключения, BDRip 720p / 60 FPS, Дубляж] от R.G. HD-Films piratbit.org

Лекарь: Ученик Авиценны через торрент piratbit.org

Раздают: 12 [ 163 KB/s ]
Размер: 5.8 GB | Добавлен: 11 д. назад | Торрент скачан:82 раза
Скачать  

08-06-2021 10:34 Лекарь: Ученик Авиценны Скачать торрент  

Лекарь: Ученик Авиценны / The Physician
Год выпуска: 2013
Страна: Германия
Жанр: драма, приключения
Продолжительность: 02:34:46
Перевод: Дубляж

Режиссер: Филипп Штёльцль

Бюджет: $36 000 000
Премьера в мире: 25 декабря 2013

rating

В ролях: Том Пэйн, Бен Кингсли, Эмма Ригби, Стеллан Скарсгард, Оливье Мартинес, Элиас ЭмБарек, Майкл Джибсон, Стэнли Таунсенд, Майкл Маркус Морган, Адам Томас Райт

Описание: Англия, XI век. Мать десятилетнего Роба Коула умирает в страшных мучениях: никто не знает ни природы её болезни, ни лекарства против неё. Маленький Роб, потрясенный до глубины души, во что бы то ни стало стремится разгадать эту тайну.

Ему суждено пройти долгий путь, от Англии до Персии, его учителями становятся сначала обыкновенный шарлатан Барбер, а потом — великий лекарь Авиценна. Мудрый учитель видит в Робе необыкновенный талант к медицине, но советует ему не спешить делать вещи, которые не соответствуют веку. Но Роб ни перед чем не останавливается в своем желании научиться спасать людей от смерти, и над его собственной жизнью нависает угроза, ведь он дважды пошел против предрассудков: использовал для научных исследований тело человека и полюбил женщину, отданную в жены другому.


Качество: BDRip 720p / 60 FPS
Формат: MKV
Видео кодек: H.264
Аудио кодек: AC3
Видео: x264, 1280 x 536 ( 2,40:1 ), 4976 kbps, 60,000 fps, ( 0.121 bpp)
Аудио#1: Русский, AC-3, 48.0 KHz, 6 ch, 384 Kbps
Релиз от: Автор рипа: slaventi-69
Общее
Уникальный идентификатор : 67665031548762752845970822289025027989 (0x32E7CFA0A13D844D9FBBFD3182724F95)
Полное имя : F:\60 FPS\The.Physician.(2013).BDRip.720p.(60 Fps).mkv
Формат : Matroska
Версия формата : Version 4
Размер файла : 5,80 Гбайт
Продолжительность : 2 ч. 34 м.
Общий поток : 5363 Кбит/сек
Название фильма : Лекарь: Ученик Авиценны / The Physician (2013) BDRip 720p (60 Fps)
Дата кодирования : UTC 2021-06-08 10:13:24
Программа кодирования : mkvmerge v56.1.0 ('My Friend') 32-bit
Библиотека кодирования : libebml v1.4.2 + libmatroska v1.6.4

Видео
Идентификатор : 1
Формат : AVC
Формат/Информация : Advanced Video Codec
Профиль формата : High@L4.1
Настройки формата : CABAC / 10 Ref Frames
Параметр CABAC формата : Да
Параметр RefFrames формата : 10 кадров
Идентификатор кодека : V_MPEG4/ISO/AVC
Продолжительность : 2 ч. 34 м.
Битрейт : 4976 Кбит/сек
Ширина : 1280 пикселей
Высота : 536 пикселей
Соотношение сторон : 2,40:1
Режим частоты кадров : Постоянный
Частота кадров : 60,000 кадров/сек
Цветовое пространство : YUV
Субдискретизация насыщенности : 4:2:0
Битовая глубина : 8 бит
Тип развёртки : Прогрессивная
Бит/(Пиксели*Кадры) : 0.121
Размер потока : 5,38 Гбайт (93%)
Заголовок : slaventi-69 ( R.G. HD-Films | 60 fps )
Библиотека кодирования : x264 core 130 r2273 b3065e6
Настройки программы : cabac=1 / ref=11 / deblock=1:-2:-2 / analyse=0x3:0x133 / me=umh / subme=9 / psy=1 / psy_rd=1.00:0.00 / mixed_ref=1 / me_range=32 / chroma_me=1 / trellis=2 / 8x8dct=1 / cqm=0 / deadzone=21,11 / fast_pskip=0 / chroma_qp_offset=-2 / threads=8 / lookahead_threads=4 / sliced_threads=0 / nr=0 / decimate=1 / interlaced=0 / bluray_compat=0 / constrained_intra=0 / bframes=5 / b_pyramid=1 / b_adapt=2 / b_bias=0 / direct=2 / weightb=1 / open_gop=0 / weightp=2 / keyint=600 / keyint_min=23 / scenecut=40 / intra_refresh=0 / rc=crf / mbtree=0 / crf=14.6 / qcomp=0.60 / qpmin=0 / qpmax=69 / qpstep=4 / ip_ratio=1.40 / pb_ratio=1.30 / aq=1:1.00
Язык : English
Default : Да
Forced : Нет

Аудио
Идентификатор : 2
Формат : AC-3
Формат/Информация : Audio Coding 3
Коммерческое название : Dolby Digital
Идентификатор кодека : A_AC3
Продолжительность : 2 ч. 34 м.
Вид битрейта : Постоянный
Битрейт : 384 Кбит/сек
Каналы : 6 каналов
Channel layout : L R C LFE Ls Rs
Частота : 48,0 КГц
Частота кадров : 31,250 кадров/сек (1536 SPF)
Битовая глубина : 16 бит
Метод сжатия : С потерями
Размер потока : 425 Мбайт (7%)
Заголовок : Dub
Язык : Russian
ServiceKind/String : Complete Main
Default : Да
Forced : Нет

Меню
00:00:00.000 : :Chapter 01
00:00:04.000 : :Chapter 02
00:18:33.416 : :Chapter 03
00:38:54.750 : :Chapter 04
00:56:59.083 : :Chapter 05
01:21:29.916 : :Chapter 06
01:39:45.916 : :Chapter 07
02:05:39.000 : :Chapter 08
02:20:17.708 : :Chapter 09

Просьба к переливающим на другие сайты, в оформлении указывайте пожалуйста авторство группы R.G. HD-Films piratbit.org



Скачать Лекарь: Ученик Авиценны через торрент http://i64.fastpic.ru/big/2014/0703/14/249923ef1179f9bb162d38df2e4be214.png Скачать фильм Лекарь: Ученик Авиценны через торрент бесплантно в хорошем качестве Описание: Англия, XI век. Мать десятилетнего Роба Коула умирает в страшных мучениях: никто не знает ни природы её болезни, ни лекарства ... 10 10 4
Торрент: Зарегистрирован [2021-06-08 10:34] · скачан: 82 раз
Статус: √ проверено
Размер: 5.8 GB
Как cкачать? Как скачать Лекарь: Ученик Авиценны через торрент | UTorrent

28-11-2019 20:33  

Отключить всю рекламу на сайте

08-06-2021 17:09 Лекарь: Ученик Авиценны Скачать торрент  

Неплохое кино. Интересноеpiratbit.org



    Дорогой пользователь! Огромная просьба, поблагодарите релизера, оцените раздачу и оставьте свои комментарий, если Вы скачали Лекарь: Ученик Авиценны через торрент бесплатно! Внесите свою лепту в развитие PiratBit!
    Комментировать посты могут только пользователи прошедшие не сложную регистрацию
    Показать сообщения:    

    Лекарь: Ученик Авиценны через торрент
    Скачать бесплатно Лекарь: Ученик Авиценны
    Лекарь: Ученик Авиценны скачать торрент
    Лекарь: Ученик Авиценны смотреть онлайн
    Cкачать фильм Лекарь: Ученик Авиценны бесплатно
    Лекарь: Ученик Авиценны скачать торрент в хорошем качестве
    Лекарь: Ученик Авиценны смотреть онлайн бесплатно в хорошем качестве


    Вы не можете начинать темы
    Вы не можете отвечать на сообщения
    Вы не можете редактировать свои сообщения
    Вы не можете удалять свои сообщения
    Вы не можете голосовать в опросах
    Вы не можете прикреплять файлы к сообщениям
    Вы можете скачивать файлы