1 сезон

3 сезон

iTunes

1

iTunes

DUB Netflix

iTunes

13

1 сезон

RePack

30

Deluxe

pack

Легкие деньги

ВАЖНО

ИГРА 18+

pack

RePack

MK11

RePack

jed

RePack

fifa19

RePack

RDR2

RePack

NEED FOR SPEED™ PAYBACK

4 сезон

9 сезон

Бесстыжие 9 сезон

Все сериалы

все сериалы на PB.wtf

RePack

FAR CRY 5

Anonymous, добрый день, мы не успеваем до 1 числа собрать деньги на оплату серверов, помогите нам пожалуйста в это трудное время. В качестве благодарности мы отключим Вам всю рекламу на сайте (укажите свой ник в строку Ваше имя)!

×
  
Magnet ссылка

Локи / Loki / Сезон: 1 / Серии: 1-2 из 6 (Кейт Херрон) [2021, Фантастика, фэнтези, боевик, приключения, WEBRip (HEVC)1080p] 2x[MVO] (HDRezka Studio, AlexFilm) + [Ukr MVO] (Цікава ідея) piratbit.org

Локи через торрент piratbit.org

Раздают: 16 [ 3 MB/s ] Качают: 6 [ 0 KB/s ]
Размер: 3.07 GB | Добавлен: 21 ч. назад | Торрент скачан:22 раза
Скачать  

09-06-2021 19:45 Локи Скачать торрент  


Локи / Loki


Год выпуска: 2021
Страна: США / Marvel Studios Inc.
Жанр: Фантастика, фэнтези, боевик, приключения
Продолжительность : 1 x ~ 00:51:30
Перевод #1: Профессиональный (многоголосый) *HDRezka Studio
Перевод #2: Профессиональный (многоголосый) *AlexFilm
Перевод #3: Украинский (профессиональный, многоголосный) *Цікава ідея
Субтитры: русские (Forced «HDRezka Studio», Full |«PhysKids»), английские, португальские, арабские, чешские, испанские, немецкие, итальянские, японские, и др.

Режиссёр: Кейт Херрон

В ролях: Том Хиддлстон, Софи Ди Мартино, Ричард Э. Грант, Гугу Мбата-Роу, Вунми Моссаку, Оуэн Уилсон, Эрика Коулмэн, Саша Лэйн, Джон Ливайн, Люсиус Бастон мл.
Описание: Локи попадает в таинственную организацию «Управление временными изменениями» после того, как он украл Тессеракт, и путешествует во времени, меняя историю.

rating

Качество: WEBRip (HEVC)1080p
Формат: MKV
✦ Видео кодек: x.265
✦ Аудио кодек: AC3, E-AC3
Видео: HEVC, 1920x1080, 2 332 Kbps, 24,000 fps
Аудио #1 Rus: AC3, 48 kHz, 6 ch, 448 kbps *HDRezka Studio *в озвучке задействованы актеры дубляжа Петр Иващенко, Александр Гаврилин*
Аудио #2 Rus: AC3, 48 kHz, 6 ch, 384 kbps *AlexFilm
Аудио #3 Ukr: AC3, 48 kHz, 2 ch, 192 kbps *Цікава ідея
Аудио #4 Eng: E-AC3 JOC, 48 kHz, 6 ch, 768 kbps|Original|
скриншот   скриншот   скриншот   скриншот   скриншот  
General
Unique ID : 188759701808984395859227032180745876986 (0x8E01CBD3D0028F04BE5068284B5CB5FA)
Complete name : F:\Loki.S01.WEBRip(HEVC)1080p\Loki.S01E01.WEBRip (HEVC)1080p. 2x[MVO] (HDRezka Studio, AlexFilm), [Ukr].xz.mkv
Format : Matroska
Format version : Version 4 / Version 2
File size : 1.49 GiB
Duration : 51mn 30s
Overall bit rate : 4 129 Kbps
Movie name : Loki.S01E01.WEBRip (HEVC)1080p. 2x[MVO] (HDRezka Studio, AlexFilm), [Ukr].xz
Encoded date : UTC 2021-06-10 04:56:12
Writing application : mkvmerge v6.1.0 ('Old Devil') built on Mar 2 2013 14:32:37
Writing library : libebml v1.3.0 + libmatroska v1.4.0
DURATION : 00:50:06.208000000
NUMBER_OF_FRAMES : 497
NUMBER_OF_BYTES : 17871
_STATISTICS_WRITING_APP : mkvmerge v56.1.0 ('My Friend') 64-bit
_STATISTICS_WRITING_DATE_UTC : 2021-06-09 16:58:11
_STATISTICS_TAGS : BPS DURATION NUMBER_OF_FRAMES NUMBER_OF_BYTES

Video
ID : 1
Format : HEVC
Format/Info : High Efficiency Video Coding
Format profile : Main 10@L4@Main
Codec ID : V_MPEGH/ISO/HEVC
Duration : 51mn 30s
Bit rate : 2 332 Kbps
Width : 1 920 pixels
Height : 1 080 pixels
Display aspect ratio : 16:9
Frame rate mode : Constant
Frame rate : 24.000 fps
Color space : YUV
Chroma subsampling : 4:2:0
Bit depth : 10 bits
Bits/(Pixel*Frame) : 0.045
Stream size : 831 MiB (55%)
Title : Loki.S01E01.WEBRip (HEVC)1080p. 2x[MVO] (HDRezka Studio, AlexFilm), [Ukr].xz
Writing library : x265 3.5+9-bf91444e0:[Windows][MSVC 1928][64 bit] 10bit
Encoding settings : cpuid=1111039 / frame-threads=3 / numa-pools=8 / wpp / no-pmode / no-pme / no-psnr / no-ssim / log-level=2 / input-csp=1 / input-res=1920x1080 / interlace=0 / total-frames=1416 / level-idc=0 / high-tier=1 / uhd-bd=0 / ref=4 / no-allow-non-conformance / no-repeat-headers / annexb / no-aud / no-eob / no-eos / no-hrd / info / hash=0 / no-temporal-layers / open-gop / min-keyint=24 / keyint=240 / gop-lookahead=0 / bframes=16 / b-adapt=2 / b-pyramid / bframe-bias=0 / rc-lookahead=90 / lookahead-slices=4 / scenecut=40 / hist-scenecut=0 / radl=0 / no-splice / no-intra-refresh / ctu=64 / min-cu-size=8 / no-rect / no-amp / max-tu-size=32 / tu-inter-depth=4 / tu-intra-depth=4 / limit-tu=0 / rdoq-level=2 / dynamic-rd=0.00 / no-ssim-rd / signhide / no-tskip / nr-intra=0 / nr-inter=0 / no-constrained-intra / no-strong-intra-smoothing / max-merge=5 / limit-refs=0 / limit-modes / me=3 / subme=7 / merange=92 / temporal-mvp / no-frame-dup / no-hme / weightp / no-weightb / no-analyze-src-pics / deblock=0:0 / sao / no-sao-non-deblock / rd=4 / selective-sao=4 / no-early-skip / rskip / no-fast-intra / no-tskip-fast / no-cu-lossless / no-b-intra / no-splitrd-skip / rdpenalty=0 / psy-rd=1.10 / psy-rdoq=1.00 / no-rd-refine / no-lossless / cbqpoffs=0 / crqpoffs=0 / rc=crf / crf=16.6 / qcomp=0.60 / qpstep=4 / stats-write=0 / stats-read=0 / ipratio=1.40 / pbratio=1.30 / aq-mode=4 / aq-strength=1.00 / cutree / zone-count=0 / no-strict-cbr / qg-size=32 / no-rc-grain / qpmax=69 / qpmin=0 / no-const-vbv / sar=1 / overscan=0 / videoformat=5 / range=0 / colorprim=2 / transfer=2 / colormatrix=2 / chromaloc=0 / display-window=0 / cll=0,0 / min-luma=0 / max-luma=1023 / log2-max-poc-lsb=8 / vui-timing-info / vui-hrd-info / slices=1 / no-opt-qp-pps / no-opt-ref-list-length-pps / no-multi-pass-opt-rps / scenecut-bias=0.05 / hist-threshold=0.03 / no-opt-cu-delta-qp / no-aq-motion / no-hdr10 / no-hdr10-opt / no-dhdr10-opt / no-idr-recovery-sei / analysis-reuse-level=0 / analysis-save-reuse-level=0 / analysis-load-reuse-level=0 / scale-factor=0 / refine-intra=0 / refine-inter=0 / refine-mv=1 / refine-ctu-distortion=0 / no-limit-sao / ctu-info=0 / no-lowpass-dct / refine-analysis-type=0 / copy-pic=1 / max-ausize-factor=1.0 / no-dynamic-refine / no-single-sei / no-hevc-aq / no-svt / no-field / qp-adaptation-range=1.00 / scenecut-aware-qp=0conformance-window-offsets / right=0 / bottom=0 / decoder-max-rate=0 / no-vbv-live-multi-pass
Default : Yes
Forced : No

Audio #1
ID : 2
Format : AC-3
Format/Info : Audio Coding 3
Mode extension : CM (complete main)
Format settings, Endianness : Big
Codec ID : A_AC3
Duration : 51mn 30s
Bit rate mode : Constant
Bit rate : 448 Kbps
Channel(s) : 6 channels
Channel positions : Front: L C R, Side: L R, LFE
Sampling rate : 48.0 KHz
Compression mode : Lossy
Stream size : 165 MiB (11%)
Title : HDRezka Studio
Language : Russian
Default : Yes
Forced : No

Audio #2
ID : 3
Format : AC-3
Format/Info : Audio Coding 3
Mode extension : CM (complete main)
Format settings, Endianness : Big
Codec ID : A_AC3
Duration : 51mn 30s
Bit rate mode : Constant
Bit rate : 384 Kbps
Channel(s) : 6 channels
Channel positions : Front: L C R, Side: L R, LFE
Sampling rate : 48.0 KHz
Compression mode : Lossy
Stream size : 141 MiB (9%)
Title : AlexFilm
Language : Russian
Default : No
Forced : No

Audio #3
ID : 4
Format : AC-3
Format/Info : Audio Coding 3
Mode extension : CM (complete main)
Format settings, Endianness : Big
Codec ID : A_AC3
Duration : 51mn 30s
Bit rate mode : Constant
Bit rate : 192 Kbps
Channel(s) : 2 channels
Channel positions : Front: L R
Sampling rate : 48.0 KHz
Compression mode : Lossy
Stream size : 70.7 MiB (5%)
Title : Ukr MVO_Cikava Ideya
Language : Ukrainian
Default : No
Forced : No

Audio #4
ID : 5
Format : E-AC-3
Format/Info : Audio Coding 3
Format settings, Endianness : Big
Codec ID : A_EAC3
Duration : 51mn 30s
Bit rate mode : Constant
Bit rate : 768 Kbps
Channel(s) : 6 channels
Channel positions : Front: L C R, Side: L R, LFE
Sampling rate : 48.0 KHz
Compression mode : Lossy
Stream size : 283 MiB (19%)
Title : English
Language : English
Default : No
Forced : No

Text #1
ID : 6
Format : UTF-8
Codec ID : S_TEXT/UTF8
Codec ID/Info : UTF-8 Plain Text
Title : rus *PhysKids*
Language : Russian
Default : No
Forced : No

Text #2
ID : 7
Format : ASS
Codec ID : S_TEXT/ASS
Codec ID/Info : Advanced Sub Station Alpha
Compression mode : Lossless
Language : English
Default : No
Forced : No

Text #3
ID : 8
Format : UTF-8
Codec ID : S_TEXT/UTF8
Codec ID/Info : UTF-8 Plain Text
Title : Chinese (Simplified)
Language : Chinese
Default : No
Forced : No

Text #4
ID : 9
Format : UTF-8
Codec ID : S_TEXT/UTF8
Codec ID/Info : UTF-8 Plain Text
Title : Dansk
Language : Danish
Default : No
Forced : No

Text #5
ID : 10
Format : UTF-8
Codec ID : S_TEXT/UTF8
Codec ID/Info : UTF-8 Plain Text
Title : Deutsch
Language : German
Default : No
Forced : No

Text #6
ID : 11
Format : UTF-8
Codec ID : S_TEXT/UTF8
Codec ID/Info : UTF-8 Plain Text
Title : Español
Language : Spanish
Default : No
Forced : No

Text #7
ID : 12
Format : UTF-8
Codec ID : S_TEXT/UTF8
Codec ID/Info : UTF-8 Plain Text
Title : Español (Latinoamericano)
Language : Spanish
Default : No
Forced : No

Text #8
ID : 13
Format : UTF-8
Codec ID : S_TEXT/UTF8
Codec ID/Info : UTF-8 Plain Text
Title : Français
Language : French
Default : No
Forced : No

Text #9
ID : 14
Format : UTF-8
Codec ID : S_TEXT/UTF8
Codec ID/Info : UTF-8 Plain Text
Title : Français (Canadien)
Language : French
Default : No
Forced : No

Text #10
ID : 15
Format : UTF-8
Codec ID : S_TEXT/UTF8
Codec ID/Info : UTF-8 Plain Text
Title : Italiano
Language : Italian
Default : No
Forced : No

Text #11
ID : 16
Format : UTF-8
Codec ID : S_TEXT/UTF8
Codec ID/Info : UTF-8 Plain Text
Title : Japanese
Language : Japanese
Default : No
Forced : No

Text #12
ID : 17
Format : UTF-8
Codec ID : S_TEXT/UTF8
Codec ID/Info : UTF-8 Plain Text
Title : Nederlands
Language : Dutch
Default : No
Forced : No

Text #13
ID : 18
Format : UTF-8
Codec ID : S_TEXT/UTF8
Codec ID/Info : UTF-8 Plain Text
Title : Norsk
Language : Norwegian
Default : No
Forced : No

Text #14
ID : 19
Format : UTF-8
Codec ID : S_TEXT/UTF8
Codec ID/Info : UTF-8 Plain Text
Title : Português
Language : Portuguese
Default : No
Forced : No

Text #15
ID : 20
Format : UTF-8
Codec ID : S_TEXT/UTF8
Codec ID/Info : UTF-8 Plain Text
Title : Português (Brasil)
Language : Portuguese
Default : No
Forced : No

Text #16
ID : 21
Format : UTF-8
Codec ID : S_TEXT/UTF8
Codec ID/Info : UTF-8 Plain Text
Title : Suomi
Language : Finnish
Default : No
Forced : No

Text #17
ID : 22
Format : UTF-8
Codec ID : S_TEXT/UTF8
Codec ID/Info : UTF-8 Plain Text
Title : Svenska
Language : Swedish
Default : No
Forced : No

Text #18
ID : 23
Format : UTF-8
Codec ID : S_TEXT/UTF8
Codec ID/Info : UTF-8 Plain Text
Title : rus (forced) *HDRezka Studio
Language : Russian
Default : Yes
Forced : No
Внимание! Раздача ведётся путём добавления новых серий; при каждом добавлении создаётся новый торрент. Чтобы начать докачку новой серии, пользователям необходимо сделать следующее:
(1) остановить скачивание,
(2) удалить старый торрент у себя из клиента (старые серии удалять не надо),
(3) скачать новый торрент и запустить его у себя в клиенте вместо старого, при этом указать клиенту путь в старую папку куда и должно происходить скачивание новых серий.

Ваш клиент при этом должен произвести хеширование (проверку) старой папки (если не производит сам - помогите ему сделать это), и будет докачивать только те серии которых у вас ещё нет. Старые серии при этом не удаляются, а продолжают раздаваться!

Eсли вы уже удалили старые серии, то предотвратить повторную закачку старых серий можно, отжав галочку в соответствующих местах при запуске нового торрента. По возможности, желательно не удалять старые серии как можно дольше чтобы релизёр не столько продолжал раздавать старые серии, а смог сконцентрироваться на новых.
piratbit.org



Скачать Локи через торрент https://a.radikal.ru/a32/2106/c8/332a8d828b7b.jpg Скачать фильм Локи через торрент бесплантно в хорошем качестве Описание: Локи попадает в таинственную организацию «Управление временными изменениями» после того, как он украл Тессеракт, и путешествует ... 9.2 10 11
Info! Золотая раздача, скачанное не засчитывается.
Торрент: Зарегистрирован [2021-06-17 14:53] · скачан: 22 раз
Статус: √ проверено
Размер: 3.07 GB
Как cкачать? Как скачать Локи через торрент | UTorrent

% Раздел Тема Автор DL S | L
Фильмы без перевода [ 4.84 GB ] Локи / Loki / Сезон: 1 / Серии: 1-2 из 6 [2021 WEB-DL 1080p] 2x [Sub] killermax2013 Скачать
4 | 4
Зарубежные сериалы [ 1.45 GB ] Локи / Loki / Сезон: 1 / Серии: 1-2 из 6 [2021 WEB-DLRip] MVO [AlexFilm] bober100 Скачать
14 | 13
Зарубежные сериалы [ 16.87 GB ] Локи / Loki / Сезон: 1 / Серии: 1-2 из 6 [2021 WEB-DL 2160p HDR] 3х[MVO] killermax2013 Скачать
8 | 13
Зарубежные сериалы [ 1.81 GB ] Локи / Loki / Сезон: 1 / Серии: 1-2 из 6 [2021 WEB-DLRip] MVO [HDrezka Studio] bober100 Скачать
13 | 4
Зарубежные сериалы [ 5.17 GB ] Локи / Loki / Сезон: 1 / Серии: 1-2 из 6 [2021 WEB-DL 1080p] MVO [HDrezka Studio] bober100 Скачать
14 | 35
Зарубежные сериалы [ 5.59 GB ] Локи / Loki / Сезон: 1 / Серии: 1-2 из 6 [2021 WEBRip 1080p] 2x[MVO] + [Ukr MVO] killermax2013 Скачать
7 | 9
Зарубежные сериалы [ 5.59 GB ] Локи / Loki / Сезон: 1 / Серии: 1-2 из 6 [2021 WEB-DL 1080p] MVO [AlexFilm] bober100 Скачать
8 | 10


Последний раз редактировалось: killermax2013 (2021-06-17 14:53), всего редактировалось 3 раз(а)

28-11-2019 20:33  

Отключить всю рекламу на сайте

10-06-2021 19:25 Локи Скачать торрент  

Раздающему спасибо, картинка и звук на уровне! Но содержание (по крайней мере первая серия) атцкий шлак!piratbit.org
Kkillermax2013 писал(а):

Посмотрим как дальше пойдет.ВандаВижн по началу тоже трэш полный



    Дорогой пользователь! Огромная просьба, поблагодарите релизера, оцените раздачу и оставьте свои комментарий, если Вы скачали Локи через торрент бесплатно! Внесите свою лепту в развитие PiratBit!
    Комментировать посты могут только пользователи прошедшие не сложную регистрацию
    Показать сообщения:    

    Локи через торрент
    Скачать бесплатно Локи
    Локи скачать торрент
    Локи смотреть онлайн
    Cкачать фильм Локи бесплатно
    Локи скачать торрент в хорошем качестве
    Локи смотреть онлайн бесплатно в хорошем качестве


    Вы не можете начинать темы
    Вы не можете отвечать на сообщения
    Вы не можете редактировать свои сообщения
    Вы не можете удалять свои сообщения
    Вы не можете голосовать в опросах
    Вы не можете прикреплять файлы к сообщениям
    Вы можете скачивать файлы