1 сезон

3 сезон

iTunes

1

iTunes

DUB Netflix

iTunes

13

1 сезон

RePack

30

Deluxe

pack

Легкие деньги

ВАЖНО

ИГРА 18+

pack

RePack

MK11

RePack

jed

RePack

fifa19

RePack

RDR2

RePack

NEED FOR SPEED™ PAYBACK

4 сезон

9 сезон

Бесстыжие 9 сезон

Все сериалы

все сериалы на PB.wtf

RePack

FAR CRY 5

Anonymous, доброй ночи, мы не успеваем до 1 числа собрать деньги на оплату серверов, помогите нам пожалуйста в это трудное время. В качестве благодарности мы отключим Вам всю рекламу на сайте (укажите свой ник в строку Ваше имя)!

×
  
Magnet ссылка

Содержанки / Сезон: 3 / Серии: 1-2 из 12 (Юрий Мороз) [2021, Триллер, эротика, WEBRip 1080p] piratbit.org

Содержанки через торрент piratbit.org

Раздают: 18 [ 2 MB/s ] Качают: 4 [ 0 KB/s ]
Размер: 4.15 GB | Добавлен: 2 д. 18 ч. назад | Торрент скачан:40 раз
Скачать  

10-06-2021 03:24 Содержанки Скачать торрент  

Содержанки
Год выпуска: 2021
Страна: Россия
Студия: Старт, Yellow, Black & White
Жанр: Триллер, эротика
Продолжительность: ~ 00:50:00
Субтитры: отсутствуют

Режиссер: Юрий Мороз

rating

В ролях: Дарья Мороз, Владимир Мишуков, Софья Эрнст, Сергей Бурунов, Марина Зудина, Семён Штейнберг, Александра Ребенок, Сабина Ахмедова, Александра Ревенко, Игорь Миркурбанов, Константин Лавроненко, Юрий Чурсин, Пётр Скворцов, Виктория Толстоганова, Светлана Устинова, Сергей Гилёв, Владимир Майзингер, Александр Горбатов (II), Игорь Верник, Александр Молочников, Игорь Гордин, Виктор Вержбицкий, Александр Воробьёв, Артём Кошман, Марго Овсянникова, Антон Севидов, Глеб Калюжный, Дмитрий Куличков

Описание: Лена Широкова сделала неожиданный выбор, узнав о происхождении загадочной художницы Асфари. Куда приведет Лену этот выбор и как сложатся ее отношения с Глебом?

Качество: WEBRip 1080p
Формат: MKV

Видео: AVC, 1920x1080 (16:9), 25,000 кадров/сек, ~6480 Кбит/сек, 0.128 bit/pixel
Аудио: 48.0 kHz, AC3 Dolby Digital, 2/0 (L,R) ch, ~ 192 kbps
скриншот  скриншот  скриншот  скриншот  

Общее
Уникальный идентификатор : 185618427675591579355916225891934811343 (0x8BA4CF0E1C21B521A11A3FDAF15634CF)
Полное имя : E:\Soderzhanki.S03.2021.WEB-DL.(1080p).Getty\Soderzhanki.s03e01.2021.WEB-DL.(1080p).Getty.mkv
Формат : Matroska
Версия формата : Version 4
Размер файла : 2,16 Гбайт
Продолжительность : 46 м. 45 с.
Общий поток : 6 618 Кбит/сек
Название фильма : Soderzhanki.s03e01.2021.WEB-DL.(1080p).Getty
Дата кодирования : UTC 2021-06-09 21:10:05
Программа кодирования : mkvmerge v7.8.0 ('River Man') 32bit built on Mar 27 2015 16:18:02
Библиотека кодирования : libebml v1.3.1 + libmatroska v1.4.2

Видео
Идентификатор : 1
Формат : AVC
Формат/Информация : Advanced Video Codec
Профиль формата : High@L4
Настройки формата : CABAC / 4 Ref Frames
Параметр CABAC формата : Да
Параметр RefFrames формата : 4 кадра
Идентификатор кодека : V_MPEG4/ISO/AVC
Продолжительность : 46 м. 45 с.
Битрейт : 6 480 Кбит/сек
Ширина : 1 920 пикселей
Высота : 1 080 пикселей
Соотношение сторон : 16:9
Режим частоты кадров : Постоянный
Частота кадров : 25,000 кадров/сек
Цветовое пространство : YUV
Субдискретизация насыщенности : 4:2:0
Битовая глубина : 8 бит
Тип развёртки : Прогрессивная
Бит/(Пиксели*Кадры) : 0.125
Размер потока : 2,10 Гбайт (97%)
Библиотека кодирования : x264 core 152
Настройки программы : cabac=1 / ref=2 / deblock=1:0:0 / analyse=0x3:0x113 / me=hex / subme=6 / psy=1 / psy_rd=1.00:0.00 / mixed_ref=1 / me_range=16 / chroma_me=1 / trellis=1 / 8x8dct=1 / cqm=0 / deadzone=21,11 / fast_pskip=1 / chroma_qp_offset=-2 / threads=12 / lookahead_threads=2 / sliced_threads=0 / nr=0 / decimate=1 / interlaced=0 / bluray_compat=0 / constrained_intra=0 / bframes=3 / b_pyramid=2 / b_adapt=1 / b_bias=0 / direct=1 / weightb=1 / open_gop=0 / weightp=1 / keyint=250 / keyint_min=25 / scenecut=40 / intra_refresh=0 / rc_lookahead=30 / rc=abr / mbtree=1 / bitrate=6480 / ratetol=1.0 / qcomp=0.60 / qpmin=0 / qpmax=69 / qpstep=4 / vbv_maxrate=7776 / vbv_bufsize=15552 / nal_hrd=none / filler=0 / ip_ratio=1.40 / aq=1:1.00
Default : Да
Forced : Нет
Цветовой диапазон : Limited
Основные цвета : BT.709
Характеристики трансфера : BT.709
Коэффициенты матрицы : BT.709

Аудио
Идентификатор : 2
Формат : AC-3
Формат/Информация : Audio Coding 3
Коммерческое название : Dolby Digital
Идентификатор кодека : A_AC3
Продолжительность : 46 м. 45 с.
Вид битрейта : Постоянный
Битрейт : 192 Кбит/сек
Каналы : 2 канала
Channel layout : L R
Частота : 48,0 КГц
Частота кадров : 31,250 кадров/сек (1536 SPF)
Метод сжатия : С потерями
Задержка видео : -80 мс.
Размер потока : 64,2 Мбайт (3%)
Service kind : Complete Main
Default : Да
Forced : Нет

Внимание! Раздача ведётся путём добавления новых серий; при каждом добавлении создаётся новый торрент.
Чтобы начать докачку новой серии, пользователям необходимо сделать следующее:
1. Остановить скачивание;
2. Удалить старый торрент у себя из клиента (старые серии удалять не надо);
3. Скачать новый торрент и запустить его у себя в клиенте вместо старого, при этом указать клиенту путь в старую папку куда и должно происходить скачивание новых серий. Ваш клиент при этом должен произвести хеширование (проверку) старой папки и будет докачивать только те серии, которых у вас ещё нет. Старые серии при этом не удаляются, а продолжают раздаваться! Eсли вы уже удалили старые серии, то предотвратить повторную закачку старых серий можно, отжав галочку в соответствующих местах при запуске нового торрента.

piratbit.org



Скачать Содержанки через торрент https://i114.fastpic.ru/big/2021/0610/c9/8a7aa673f65cb34c0e48ec403873afc9.jpg Скачать фильм Содержанки через торрент бесплантно в хорошем качестве Описание: Лена Широкова сделала неожиданный выбор, узнав о происхождении загадочной художницы Асфари. Куда приведет Лену этот выбор и как ... 10 10 9
Торрент: Зарегистрирован [2021-06-17 03:23] · скачан: 40 раз
Статус: √ проверено
Размер: 4.15 GB
Как cкачать? Как скачать Содержанки через торрент | UTorrent

% Раздел Тема Автор DL S | L
Наши сериалы [ 1.12 GB ] Содержанки / Сезон: 3 / Серии: 1-2 из 12 [2021 эротика WEBRip-AVC] bober100 Скачать
5 | 6

28-11-2019 20:33  

Отключить всю рекламу на сайте


    Дорогой пользователь! Огромная просьба, поблагодарите релизера, оцените раздачу и оставьте свои комментарий, если Вы скачали Содержанки через торрент бесплатно! Внесите свою лепту в развитие PiratBit!
    Комментировать посты могут только пользователи прошедшие не сложную регистрацию
    Показать сообщения:    

    Содержанки через торрент
    Скачать бесплатно Содержанки
    Содержанки скачать торрент
    Содержанки смотреть онлайн
    Cкачать фильм Содержанки бесплатно
    Содержанки скачать торрент в хорошем качестве
    Содержанки смотреть онлайн бесплатно в хорошем качестве


    Вы не можете начинать темы
    Вы не можете отвечать на сообщения
    Вы не можете редактировать свои сообщения
    Вы не можете удалять свои сообщения
    Вы не можете голосовать в опросах
    Вы не можете прикреплять файлы к сообщениям
    Вы можете скачивать файлы