1 сезон

3 сезон

iTunes

1

iTunes

DUB Netflix

iTunes

13

1 сезон

RePack

30

Deluxe

pack

Легкие деньги

ВАЖНО

ИГРА 18+

pack

RePack

MK11

RePack

jed

RePack

fifa19

RePack

RDR2

RePack

NEED FOR SPEED™ PAYBACK

4 сезон

9 сезон

Бесстыжие 9 сезон

Все сериалы

все сериалы на PB.wtf

RePack

FAR CRY 5

Anonymous, добрый день, мы не успеваем до 1 числа собрать деньги на оплату серверов, помогите нам пожалуйста в это трудное время. В качестве благодарности мы отключим Вам всю рекламу на сайте (укажите свой ник в строку Ваше имя)!

×
  
Magnet ссылка

Локи / Loki / Сезон: 1 / Серии: 1-2 из 6 (Кейт Херрон) [2021, Фантастика, фэнтези, боевик, приключения, WEB-DL 1080p] MVO [HDrezka Studio] piratbit.org

Локи через торрент piratbit.org

Раздают: 13 [ 2 MB/s ] Качают: 36 [ 3 MB/s ]
Размер: 5.17 GB | Добавлен: 1 д. 5 ч. назад | Торрент скачан:28 раз
Скачать  

10-06-2021 06:12 Локи Скачать торрент  

Локи | Loki
Год выпуска: 2021
Страна: США
Выпущено: Disney+
Жанр: Фантастика, фэнтези, боевик, приключения
Продолжительность: ~ 00:50:00
Перевод: Профессиональный (многоголосый) | HDrezka Studio
В озвучке задействованы актеры дубляжа Петр Иващенко, Александр Гаврилин
Субтитры: Русские (Forced |HDrezka Studio|, Full |PhysKids, Где тексты, Лебовски?, FOCS|), английские (Full, SDH)

Режиссер: Кейт Херрон

rating

В ролях: Том Хиддлстон, Софи Ди Мартино, Ричард Э. Грант, Гугу Мбата-Роу, Вунми Моссаку, Оуэн Уилсон, Эрика Коулмэн, Саша Лэйн, Джон Ливайн, Люсиус Бастон мл. и др.

Описание: В центре сюжета находится Бог хитрости и обмана Локи, которому во время возникшей суматохи удается завладеть Тессерактом и сбежать. Не успев как следует насладиться свободой, он оказывается схвачен неизвестными солдатами, которые конвоируют его в странное и совершенно незнакомое место. Вскоре выясняется, что он попал в Управление Временными Аномалиями, где ему предстоит предстать перед судом за нарушение Священного Таймлайна. А после того, как его приговаривают к "перезапуску", Локи неожиданно находит спасение в лице агента Мёбиуса, который предлагает ему свою помощь в обмен на сотрудничество.

Качество: WEB-DL 1080p
Формат: MKV

Видео: 1920x1080 at 24.000 fps, x264, ~5700 kbps avg
Аудио №1: 48 kHz, AC3, 3/2 (L,C,R,l,r) + LFE ch, ~448 kbps avg | HDrezka Studio
Аудио №2: EAC3+Atmos, 48,0 kHz, 6 ch, 768 kbps | Original
скриншот  скриншот  скриншот  скриншот  

Общее
Уникальный идентификатор : 49960633024504549236412406790426017056 (0x25961163170AB25E42C1DA122B9D3D20)
Полное имя : Loki.S01E01.mkv
Формат : Matroska
Версия формата : Version 4
Размер файла : 2,49 Гбайт
Продолжительность : 51 м. 30 с.
Режим общего битрейта : Переменный
Общий поток : 6 934 Кбит/сек
Дата кодирования : UTC 2021-06-10 06:48:17
Программа кодирования : mkvmerge v57.0.0 ('Till The End') 64-bit
Библиотека кодирования : libebml v1.4.2 + libmatroska v1.6.4

Видео
Идентификатор : 1
Формат : AVC
Формат/Информация : Advanced Video Codec
Профиль формата : High@L4
Настройки формата : CABAC / 4 Ref Frames
Параметр CABAC формата : Да
Параметр RefFrames формата : 4 кадра
Идентификатор кодека : V_MPEG4/ISO/AVC
Продолжительность : 51 м. 30 с.
Вид битрейта : Переменный
Битрейт : 5 716 Кбит/сек
Максимальный битрейт : 12,7 Мбит/сек
Ширина : 1 920 пикселей
Высота : 1 080 пикселей
Соотношение сторон : 16:9
Режим частоты кадров : Постоянный
Частота кадров : 24,000 кадра/сек
Цветовое пространство : YUV
Субдискретизация насыщенности : 4:2:0
Битовая глубина : 8 бит
Тип развёртки : Прогрессивная
Бит/(Пиксели*Кадры) : 0.115
Размер потока : 2,06 Гбайт (82%)
Язык : English
Default : Да
Forced : Нет
Цветовой диапазон : Limited
Основные цвета : BT.709
Характеристики трансфера : BT.709
Коэффициенты матрицы : BT.709

Аудио #1
Идентификатор : 2
Формат : AC-3
Формат/Информация : Audio Coding 3
Коммерческое название : Dolby Digital
Идентификатор кодека : A_AC3
Продолжительность : 51 м. 30 с.
Вид битрейта : Постоянный
Битрейт : 448 Кбит/сек
Каналы : 6 каналов
Channel layout : L R C LFE Ls Rs
Частота : 48,0 КГц
Частота кадров : 31,250 кадров/сек (1536 SPF)
Метод сжатия : С потерями
Размер потока : 165 Мбайт (6%)
Заголовок : HDrezka Studio
Язык : Russian
Service kind : Complete Main
Default : Да
Forced : Нет

Аудио #2
Идентификатор : 3
Формат : E-AC-3 JOC
Формат/Информация : Enhanced AC-3 with Joint Object Coding
Коммерческое название : Dolby Digital Plus with Dolby Atmos
Идентификатор кодека : A_EAC3
Продолжительность : 51 м. 30 с.
Вид битрейта : Постоянный
Битрейт : 768 Кбит/сек
Каналы : 6 каналов
Channel layout : L R C LFE Ls Rs
Частота : 48,0 КГц
Частота кадров : 31,250 кадров/сек (1536 SPF)
Метод сжатия : С потерями
Размер потока : 283 Мбайт (11%)
Язык : English
Service kind : Complete Main
Default : Нет
Forced : Нет
Complexity index : 16
Number of dynamic objects : 15
Bed channel count : 1 канал
Bed channel configuration : LFE

Текст #1
Идентификатор : 4
Формат : UTF-8
Идентификатор кодека : S_TEXT/UTF8
Идентификатор кодека/Информация : UTF-8 Plain Text
Продолжительность : 44 м. 16 с.
Битрейт : 2 бит/сек
Count of elements : 23
Размер потока : 840 байт (0%)
Заголовок : Forced |HDrezka Studio|
Язык : Russian
Default : Да
Forced : Нет

Текст #2
Идентификатор : 5
Формат : UTF-8
Идентификатор кодека : S_TEXT/UTF8
Идентификатор кодека/Информация : UTF-8 Plain Text
Продолжительность : 50 м. 12 с.
Битрейт : 83 бит/сек
Count of elements : 586
Размер потока : 30,5 Кбайт (0%)
Заголовок : PhysKids
Язык : Russian
Default : Нет
Forced : Нет

Текст #3
Идентификатор : 6
Формат : UTF-8
Идентификатор кодека : S_TEXT/UTF8
Идентификатор кодека/Информация : UTF-8 Plain Text
Продолжительность : 50 м. 13 с.
Битрейт : 84 бит/сек
Count of elements : 585
Размер потока : 31,2 Кбайт (0%)
Заголовок : Где тексты, Лебовски?
Язык : Russian
Default : Нет
Forced : Нет

Текст #4
Идентификатор : 7
Формат : UTF-8
Идентификатор кодека : S_TEXT/UTF8
Идентификатор кодека/Информация : UTF-8 Plain Text
Продолжительность : 50 м. 5 с.
Битрейт : 88 бит/сек
Count of elements : 563
Размер потока : 32,6 Кбайт (0%)
Заголовок : FOCS
Язык : Russian
Default : Нет
Forced : Нет

Текст #5
Идентификатор : 8
Формат : UTF-8
Идентификатор кодека : S_TEXT/UTF8
Идентификатор кодека/Информация : UTF-8 Plain Text
Продолжительность : 50 м. 5 с.
Битрейт : 55 бит/сек
Count of elements : 688
Размер потока : 20,4 Кбайт (0%)
Заголовок : SDH
Язык : English
Default : Нет
Forced : Нет

Внимание! Раздача ведётся путём добавления новых серий; при каждом добавлении создаётся новый торрент.
Чтобы начать докачку новой серии, пользователям необходимо сделать следующее:
1. Остановить скачивание;
2. Удалить старый торрент у себя из клиента (старые серии удалять не надо);
3. Скачать новый торрент и запустить его у себя в клиенте вместо старого, при этом указать клиенту путь в старую папку куда и должно происходить скачивание новых серий. Ваш клиент при этом должен произвести хеширование (проверку) старой папки и будет докачивать только те серии, которых у вас ещё нет. Старые серии при этом не удаляются, а продолжают раздаваться! Eсли вы уже удалили старые серии, то предотвратить повторную закачку старых серий можно, отжав галочку в соответствующих местах при запуске нового торрента.

piratbit.org



Скачать Локи через торрент https://i114.fastpic.ru/big/2021/0610/aa/252a403528d2a9256c4257ab4f3852aa.jpg Скачать фильм Локи через торрент бесплантно в хорошем качестве Описание: В центре сюжета находится Бог хитрости и обмана Локи, которому во время возникшей суматохи удается завладеть Тессерактом и ... 10 10 15
Торрент: Зарегистрирован [2021-06-17 07:22] · скачан: 28 раз
Статус: √ проверено
Размер: 5.17 GB
Как cкачать? Как скачать Локи через торрент | UTorrent

% Раздел Тема Автор DL S | L
Фильмы без перевода [ 4.84 GB ] Локи / Loki / Сезон: 1 / Серии: 1-2 из 6 [2021 WEB-DL 1080p] 2x [Sub] killermax2013 Скачать
4 | 4
Зарубежные сериалы [ 1.45 GB ] Локи / Loki / Сезон: 1 / Серии: 1-2 из 6 [2021 WEB-DLRip] MVO [AlexFilm] bober100 Скачать
13 | 12
Зарубежные сериалы [ 16.87 GB ] Локи / Loki / Сезон: 1 / Серии: 1-2 из 6 [2021 WEB-DL 2160p HDR] 3х[MVO] killermax2013 Скачать
8 | 13
Зарубежные сериалы [ 1.81 GB ] Локи / Loki / Сезон: 1 / Серии: 1-2 из 6 [2021 WEB-DLRip] MVO [HDrezka Studio] bober100 Скачать
13 | 4
Зарубежные сериалы [ 3.07 GB ] Локи / Loki / Сезон: 1 / Серии: 1-2 из 6 [2021 WEBRip 1080p] 2x[MVO] + [Ukr MVO] killermax2013 Скачать
16 | 5
Зарубежные сериалы [ 5.59 GB ] Локи / Loki / Сезон: 1 / Серии: 1-2 из 6 [2021 WEBRip 1080p] 2x[MVO] + [Ukr MVO] killermax2013 Скачать
7 | 9
Зарубежные сериалы [ 5.59 GB ] Локи / Loki / Сезон: 1 / Серии: 1-2 из 6 [2021 WEB-DL 1080p] MVO [AlexFilm] bober100 Скачать
8 | 10

28-11-2019 20:33  

Отключить всю рекламу на сайте

    Дорогой пользователь! Огромная просьба, поблагодарите релизера, оцените раздачу и оставьте свои комментарий, если Вы скачали Локи через торрент бесплатно! Внесите свою лепту в развитие PiratBit!
    Комментировать посты могут только пользователи прошедшие не сложную регистрацию
    Показать сообщения:    

    Локи через торрент
    Скачать бесплатно Локи
    Локи скачать торрент
    Локи смотреть онлайн
    Cкачать фильм Локи бесплатно
    Локи скачать торрент в хорошем качестве
    Локи смотреть онлайн бесплатно в хорошем качестве


    Вы не можете начинать темы
    Вы не можете отвечать на сообщения
    Вы не можете редактировать свои сообщения
    Вы не можете удалять свои сообщения
    Вы не можете голосовать в опросах
    Вы не можете прикреплять файлы к сообщениям
    Вы можете скачивать файлы