Достать ножи: Стеклянная луковица

MVO

Добыча

Дубляж

Уэнсдэй

1 сезон

Тор

Дубляж

13 клиническая

1 сезон

Жестокая ночь

MVO

Одни из нас

1 сезон

Deluxe

pack

Рекомендуем

30

Пиратка

ВАЖНО

ВАЖНО

Ghostwire

Пиратка

jed

RePack

nioh2

RePack

RDR2

RePack

NEED FOR SPEED™ PAYBACK

RePack

скачать торрент

Кинопоиск HD

Острые козырьки 6 сезон

6 сезон

FAR CRY 6

RePack

скачать торрент

Лицензия

скачать торрент

MVO

1

1 сезон

скачать торрент

1 сезон

скачать торрент

Лицензия

  

Годзилла против Конга / Godzilla vs. Kong (Адам Вингард) [2021, Боевик, фантастика, UHD BDRemux 2160p, (Dolby Vision TV)] Дубляж [iTunes]

Годзилла против Конга через торрент piratbit.org

Качают: 1 [ 0 KB/s ]
Размер: 41.31 GB | Добавлен: 1 год 7 мес. назад | Торрент скачан:109 раз
Смотреть онлайн | Скачать | Поддержите нас   

14-06-2021 05:51 Годзилла против Конга Скачать торрент  

Годзилла против Конга | Godzilla vs. Kong
Год выпуска: 2021
Страна: США, Австралия, Канада, Индия
Студия: Legendary Pictures, Warner Bros
Жанр: Боевик, фантастика
Продолжительность: 01:53:08
Перевод(ы): Дублированный | iTunes
Субтитры: Русские (Forced - отдельно)

Режиссер: Адам Вингард

rating

В ролях: Александр Скарсгард, Милли Бобби Браун, Ребекка Холл, Эйса Гонсалес, Лэнс Реддик, Джессика Хенвик, Кайл Чандлер, Джулиан Деннисон, Ван Мартен, Брайан Тайри Генри, Сюн Огури, Демиан Бичир

Описание: По вине человечества Годзилла и Конг встречаются в неравной схватке. Тем временем, организация «Монарх», изучающая земную жизнь монстров, отправляет ученых в неизведанные земли, чтобы раскрыть тайну происхождения этих созданий. Однако опасность поджидает титанов с другой стороны — кое-кто планирует уничтожить всех гигантских существ.

Качество: UHD BDRemux 2160p | Dolby Vision TV
Формат: MP4

Видео: 3840x2160 at 23.976 fps, MPEG-H HEVC HDR, Dolby Vision Video, ~ 49800 kbps avg
Аудио: 48 kHz, AC3, 5.1, 384 Kbps | Дублированный | iTunes | RUS |
Данный вид релизов (контейнер MP4) предназначен для встроенного в ТВ (соответственно, с поддержкой DV) плеер.
Т.Е. Можно использовать как USB flash/HDD, так и DLNA / Plex - подобные сервисы/программы. дополнительный-внешний плеер не обязателен.

Внимание!
На моделях LG 2016 возможны сюрпризы "через раз", 2017-2018 должно идти без сюрпризов )
скриншот  скриншот  скриншот  скриншот  скриншот  

General
Complete name : F:VideoGodzilla.vs.Kong.2021.BDREMUX.2160p.DV_TV.HDR.seleZenGodzilla.vs.Kong.2021.BDREMUX.2160p.DV_TV.HDR.seleZen.mp4
Format : MPEG-4
Format profile : Base Media / Version 2
Codec ID : mp42 (mp42/dby1/isom)
File size : 41.3 GiB
Duration : 1 h 53 min
Overall bit rate : 52.3 Mb/s
Encoded date : UTC 2021-06-13 19:51:30
Tagged date : UTC 2021-06-13 19:51:30

Video #1
ID : 1
Format : HEVC
Format/Info : High Efficiency Video Coding
Format profile : Main 10@L5.1@High
HDR format : SMPTE ST 2094 App 4, Version 1, HDR10+ Profile B compatible
Codec ID : hev1
Codec ID/Info : High Efficiency Video Coding
Duration : 1 h 53 min
Bit rate : 49.8 Mb/s
Width : 3 840 pixels
Height : 2 160 pixels
Display aspect ratio : 16:9
Frame rate mode : Constant
Frame rate : 23.976 (24000/1001) FPS
Color space : YUV
Chroma subsampling : 4:2:0 (Type 2)
Bit depth : 10 bits
Bits/(Pixel*Frame) : 0.250
Stream size : 39.3 GiB (95%)
Default : No
Encoded date : UTC 2021-06-13 19:51:30
Tagged date : UTC 2021-06-13 19:51:30
Color range : Limited
Color primaries : BT.2020
Transfer characteristics : PQ
Matrix coefficients : BT.2020 non-constant
Mastering display color pri : Display P3
Mastering display luminance : min: 0.0001 cd/m2, max: 1000 cd/m2
Maximum Content Light Level : 598 cd/m2
Maximum Frame-Average Light : 273 cd/m2
Codec configuration box : hvcC

Video #2
ID : 2
Format : HEVC
Format/Info : High Efficiency Video Coding
Format profile : Main 10@L5.1@High
HDR format : Dolby Vision, Version 1.0, dvhe.07.06, EL+RPU, Blu-ray compatible / SMPTE ST 2086, HDR10 compatible
Codec ID : dvhe
Codec ID/Info : High Efficiency Video Coding with Dolby Vision
Duration : 1 h 53 min
Bit rate : 2 104 kb/s
Width : 1 920 pixels
Height : 1 080 pixels
Display aspect ratio : 16:9
Frame rate mode : Constant
Frame rate : 23.976 (24000/1001) FPS
Color space : YUV
Chroma subsampling : 4:2:0 (Type 2)
Bit depth : 10 bits
Bits/(Pixel*Frame) : 0.042
Stream size : 1.66 GiB (4%)
Default : No
Encoded date : UTC 2021-06-13 19:51:30
Tagged date : UTC 2021-06-13 19:51:30
Color range : Limited
Color primaries : BT.2020
Transfer characteristics : PQ
Matrix coefficients : BT.2020 non-constant
Mastering display color pri : Display P3
Mastering display luminance : min: 0.0001 cd/m2, max: 1000 cd/m2
Codec configuration box : hvcC+dvcC

Audio
ID : 3
Format : AC-3
Format/Info : Audio Coding 3
Commercial name : Dolby Digital
Codec ID : ac-3
Duration : 1 h 53 min
Bit rate mode : Constant
Bit rate : 384 kb/s
Channel(s) : 6 channels
Channel layout : L R C LFE Ls Rs
Sampling rate : 48.0 kHz
Frame rate : 31.250 FPS (1536 SPF)
Compression mode : Lossy
Stream size : 311 MiB (1%)
Language : Russian
Service kind : Complete Main
Default : No
Encoded date : UTC 2021-06-13 19:51:30
Tagged date : UTC 2021-06-13 19:51:30




Скачать Годзилла против Конга через торрент https://a.radikal.ru/a13/2106/d1/6661eb5965a9.jpg Скачать, смотреть онлайн Годзилла против Конга бесплантно в хорошем качестве Описание: По вине человечества Годзилла и Конг встречаются в неравной схватке. Тем временем, организация «Монарх», изучающая земную жизнь ... 10 10 4
Info! Золотая раздача, скачанное не засчитывается.
Торрент: Зарегистрирован [2021-06-14 05:51] · скачан: 109 раз
Статус: √ проверено
Размер: 41.31 GB
Как cкачать? Как скачать Годзилла против Конга через торрент | UTorrent

% Раздел Тема Автор DL S | L
Фильмы 2021 [DVDrip, WEB-DLRip, HDrip] (DUB, MVO) [ 2.13 GB ] Годзилла против Конга / Godzilla vs. Kong | Лицензия | BDRip Twi7ter Скачать
18 | 1
Фильмы 2021 [DVDrip, WEB-DLRip, HDrip] (DUB, MVO) [ 1.41 GB ] Годзилла против Конга / Godzilla vs. Kong | Лицензия | BDRip Twi7ter Скачать
10 | 0

28-11-2019 20:33  


Отключить вcю реклaмy на сайте, в т.ч. и в плеере онлайн просмотра!

    Дорогой пользователь! Огромная просьба, поблагодарите релизера, оцените раздачу и оставьте свои комментарий, если Вы скачали Годзилла против Конга через торрент бесплатно!!
    Комментировать посты могут только пользователи прошедшие не сложную регистрацию
    Показать сообщения:    


    Годзилла против Конга через торрент
    Скачать бесплатно Годзилла против Конга
    Годзилла против Конга скачать торрент
    Годзилла против Конга смотреть онлайн
    Cкачать фильм Годзилла против Конга бесплатно
    Годзилла против Конга скачать торрент в хорошем качестве
    Годзилла против Конга смотреть онлайн бесплатно в хорошем качестве
    Вы не можете начинать темы
    Вы не можете отвечать на сообщения
    Вы не можете редактировать свои сообщения
    Вы не можете удалять свои сообщения
    Вы не можете голосовать в опросах
    Вы не можете прикреплять файлы к сообщениям
    Вы можете скачивать файлы
    Годзилла против Конга / Godzilla vs. Kong [2021, Боевик, фантастика, UHD BDRemux 2160p, ] Дубляж [iTunes] смотреть онлайн, скачать торрент picoco.icu