Достать ножи: Стеклянная луковица

MVO

Добыча

Дубляж

Уэнсдэй

1 сезон

Тор

Дубляж

13 клиническая

1 сезон

Жестокая ночь

MVO

Одни из нас

1 сезон

Deluxe

pack

Рекомендуем

30

Пиратка

ВАЖНО

ВАЖНО

Ghostwire

Пиратка

jed

RePack

nioh2

RePack

RDR2

RePack

NEED FOR SPEED™ PAYBACK

RePack

скачать торрент

Кинопоиск HD

Острые козырьки 6 сезон

6 сезон

FAR CRY 6

RePack

скачать торрент

Лицензия

скачать торрент

MVO

1

1 сезон

скачать торрент

1 сезон

скачать торрент

Лицензия

  

Основной инстинкт / Basic Instinct (Пол Верховен) [1992, Триллер, криминал, детектив, UHD BDRemux 2160p] DVO [CP-Digital] +MVO [НТВ]

Основной инстинкт через торрент piratbit.org

Размер: 53.57 GB | Добавлен: 1 год 7 мес. назад | Торрент скачан:20 раз
Смотреть онлайн | Скачать | Поддержите нас   

15-06-2021 03:41 Основной инстинкт Скачать торрент  

Основной инстинкт | Basic Instinct
Год выпуска: 1992
Страна: США, Франция, Великобритания
Студия: Canal+ [fr], Carolco Pictures Inc.
Жанр: Триллер, криминал, детектив
Продолжительность: 02:08:13
Перевод(ы):
#1: Профессиональный двухголосый | CP-Digital
#2: Профессиональный многоголосый | НТВ
Субтитры: Русские (Full), английские

Режиссер: Пол Верховен

rating

В ролях: Майкл Дуглас, Шэрон Стоун, Джордж Дзундза, Джинн Трипплхорн, Дэнис Арндт, Лейлани Сарелл, Брюс А. Янг, Челси Росс, Дороти Мэлоун, Уэйн Найт, Дэниэл фон Барген, Стивен Тоболовски, Бенжамин Мутон, Джек МакГи, Билл Кейбл, Стивен Роу, Митч Пиледжи, Мэри Пэт Глисон, Фреда Фо Шен, Уильям Дафф-Гриффин, Джеймс Ребхорн, Дэвид Уэллс, Брэдфорд Инглиш, Мэри Энн Роджерс, Адила Барнс, Ирен Ольга Лопез, Хуанита Дженнингс

Описание: Убийство рок-звезды дает старт цепочке загадочных преступлений, которые вскоре пронесутся по Сан-Франциско. Детектив Ник Карран считает главной подозреваемой создательницу детективных бестселлеров Кэтрин Трэмелл, которая была знакома с жертвой и, кроме того, описала схожее убийство в последнем романе. Однако Кэтрин легко манипулирует доверчивым Карраном, лишает его инстинкта самосохранения, заставляет путаться в ее собственных фантазиях и постепенно превращает в одного из героев своего нового произведения...

Качество: UHD BDRemux 2160p
Формат: MKV

Видео: 3840x2160 at 24.000 fps, MPEG-H HEVC HDR Video, ~ 56000 kbps avg
Аудио #01: 48 kHz, AC3, 5.1, 448 Kbps | Профессиональный двухголосый | CP-Digital | RUS |
Аудио #02: 48 kHz, AC3, 2.0, 192 Kbps | Профессиональный многоголосый | НТВ | RUS |
Аудио #03: 48 kHz, DTS-HD MA, 5.1, 3171 Kbps | Оригинал | ENG |
скриншот  скриншот  скриншот  скриншот  скриншот  

General
Unique ID : 94581566083210622937678761027227449617 (0x4727BF3D66E6D45F9048180A3B097911)
Complete name : F:VideoBasic.Instinct.1992.BDREMUX.2160p.HDR.seleZen.mkv
Format : Matroska
Format version : Version 4
File size : 53.6 GiB
Duration : 2 h 8 min
Overall bit rate mode : Variable
Overall bit rate : 59.8 Mb/s
Movie name : Basic Instinct 1992 4K from seleZen
Encoded date : UTC 2021-06-15 00:18:07
Writing application : mkvmerge v55.0.0 ('Waiting For Space') 64-bit
Writing library : libebml v1.4.2 + libmatroska v1.6.4

Video
ID : 1
Format : HEVC
Format/Info : High Efficiency Video Coding
Format profile : Main 10@L5.1@High
HDR format : SMPTE ST 2086, HDR10 compatible
Codec ID : V_MPEGH/ISO/HEVC
Duration : 2 h 8 min
Bit rate : 56.0 Mb/s
Width : 3 840 pixels
Height : 2 160 pixels
Display aspect ratio : 16:9
Frame rate mode : Constant
Frame rate : 24.000 FPS
Color space : YUV
Chroma subsampling : 4:2:0 (Type 2)
Bit depth : 10 bits
Bits/(Pixel*Frame) : 0.281
Stream size : 50.2 GiB (94%)
Language : English
Default : Yes
Forced : No
Color range : Limited
Color primaries : BT.2020
Transfer characteristics : PQ
Matrix coefficients : BT.2020 non-constant
Mastering display color pri : BT.2020
Mastering display luminance : min: 0.0001 cd/m2, max: 1000 cd/m2

Audio #1
ID : 2
Format : AC-3
Format/Info : Audio Coding 3
Commercial name : Dolby Digital
Codec ID : A_AC3
Duration : 2 h 8 min
Bit rate mode : Constant
Bit rate : 448 kb/s
Channel(s) : 6 channels
Channel layout : L R C LFE Ls Rs
Sampling rate : 48.0 kHz
Frame rate : 31.250 FPS (1536 SPF)
Compression mode : Lossy
Stream size : 411 MiB (1%)
Title : DVO [CP-Digital]
Language : Russian
Service kind : Complete Main
Default : Yes
Forced : Yes

Audio #2
ID : 3
Format : AC-3
Format/Info : Audio Coding 3
Commercial name : Dolby Digital
Codec ID : A_AC3
Duration : 2 h 8 min
Bit rate mode : Constant
Bit rate : 192 kb/s
Channel(s) : 2 channels
Channel layout : L R
Sampling rate : 48.0 kHz
Frame rate : 31.250 FPS (1536 SPF)
Compression mode : Lossy
Stream size : 176 MiB (0%)
Title : MVO [НТВ]
Language : Russian
Service kind : Complete Main
Default : No
Forced : No

Audio #3
ID : 4
Format : DTS XLL
Format/Info : Digital Theater Systems
Commercial name : DTS-HD Master Audio
Codec ID : A_DTS
Duration : 2 h 8 min
Bit rate mode : Variable
Bit rate : 3 171 kb/s
Channel(s) : 6 channels
Channel layout : C L R Ls Rs LFE
Sampling rate : 48.0 kHz
Frame rate : 93.750 FPS (512 SPF)
Bit depth : 24 bits
Compression mode : Lossless
Stream size : 2.84 GiB (5%)
Title : Original
Language : English
Default : No
Forced : No

Text #1
ID : 5
Format : UTF-8
Codec ID : S_TEXT/UTF8
Codec ID/Info : UTF-8 Plain Text
Duration : 2 h 3 min
Bit rate : 84 b/s
Count of elements : 1178
Stream size : 76.8 KiB (0%)
Title : Full [BD]
Language : Russian
Default : No
Forced : No

Text #2
ID : 6
Format : UTF-8
Codec ID : S_TEXT/UTF8
Codec ID/Info : UTF-8 Plain Text
Duration : 2 h 3 min
Bit rate : 37 b/s
Count of elements : 831
Stream size : 34.3 KiB (0%)
Title : Full
Language : English
Default : No
Forced : No

Menu
00:00:00.000 : en:Глава 01
00:07:21.708 : en:Глава 02
00:21:01.042 : en:Глава 03
00:32:18.000 : en:Глава 04
00:40:02.500 : en:Глава 05
00:51:31.042 : en:Глава 06
01:02:05.125 : en:Глава 07
01:08:07.292 : en:Глава 08
01:20:41.375 : en:Глава 09
01:30:34.500 : en:Глава 10
01:46:00.708 : en:Глава 11
01:51:07.125 : en:Глава 12




Скачать Основной инстинкт через торрент https://st-kp-yandex-net.translate.goog/images/film_iphone/iphone360_2441.jpg Скачать, смотреть онлайн Основной инстинкт бесплантно в хорошем качестве Описание: Убийство рок-звезды дает старт цепочке загадочных преступлений, которые вскоре пронесутся по Сан-Франциско. Детектив Ник Карран ... 9.3 10 4
Торрент: Зарегистрирован [2021-06-15 03:41] · скачан: 20 раз
Статус: √ проверено
Размер: 53.57 GB
Как cкачать? Как скачать Основной инстинкт через торрент | UTorrent

% Раздел Тема Автор DL S | L
Ultra HD (UHD: 2K, 4K, 8K) [ 63.16 GB ] Основной инстинкт / Basic Instinct | | 2160p, (Dolby Vision TV bober100 Скачать
1 | 0
Ultra HD (UHD: 2K, 4K, 8K) [ 69.48 GB ] Основной инстинкт / Basic Instinct | MVO | 2160p, (Dolby Vision bober100 Скачать
1 | 0
Фильмы (HD 720p, 1080p) (48-60 fps) [ 6.87 GB ] Основной инстинкт / Basic Instinct | MVO | 720p 60 fps от еnvy / NNNB еnvy Скачать
2 | 0
Фильмы [HD 720p, 1080p] (Хороший звук DUB, MVO) [ 6.65 GB ] Основной инстинкт / Basic Instinct | MVO | 720p _denis_100 Скачать
1 | 0
Фильмы до 2000 г. [ 2.18 GB ] Основной инстинкт / Basic Instinct | | BDRip feldeger Скачать
1 | 0

28-11-2019 20:33  


Отключить вcю реклaмy на сайте, в т.ч. и в плеере онлайн просмотра!

    Дорогой пользователь! Огромная просьба, поблагодарите релизера, оцените раздачу и оставьте свои комментарий, если Вы скачали Основной инстинкт через торрент бесплатно!!
    Комментировать посты могут только пользователи прошедшие не сложную регистрацию
    Показать сообщения:    


    Основной инстинкт через торрент
    Скачать бесплатно Основной инстинкт
    Основной инстинкт скачать торрент
    Основной инстинкт смотреть онлайн
    Cкачать фильм Основной инстинкт бесплатно
    Основной инстинкт скачать торрент в хорошем качестве
    Основной инстинкт смотреть онлайн бесплатно в хорошем качестве
    Вы не можете начинать темы
    Вы не можете отвечать на сообщения
    Вы не можете редактировать свои сообщения
    Вы не можете удалять свои сообщения
    Вы не можете голосовать в опросах
    Вы не можете прикреплять файлы к сообщениям
    Вы можете скачивать файлы
    Основной инстинкт / Basic Instinct [1992, Триллер, криминал, детектив, UHD BDRemux 2160p] DVO [CP-Digital] +MVO [НТВ] смотреть онлайн, скачать торрент picoco.icu