Достать ножи: Стеклянная луковица

MVO

Добыча

Дубляж

Уэнсдэй

1 сезон

Тор

Дубляж

13 клиническая

1 сезон

Жестокая ночь

MVO

Одни из нас

1 сезон

Deluxe

pack

Рекомендуем

30

Пиратка

ВАЖНО

ВАЖНО

Ghostwire

Пиратка

jed

RePack

nioh2

RePack

RDR2

RePack

NEED FOR SPEED™ PAYBACK

RePack

скачать торрент

Кинопоиск HD

Острые козырьки 6 сезон

6 сезон

FAR CRY 6

RePack

скачать торрент

Лицензия

скачать торрент

MVO

1

1 сезон

скачать торрент

1 сезон

скачать торрент

Лицензия

  

Основной инстинкт / Basic Instinct (Пол Верховен) [1992, Триллер, криминал, детектив, UHD BDRemux 2160p, (Dolby Vision TV)] DVO [CP-Digital]

Основной инстинкт через торрент piratbit.org

Размер: 63.16 GB | Добавлен: 1 год 7 мес. назад | Торрент скачан:12 раз
Смотреть онлайн | Скачать | Поддержите нас   

16-06-2021 00:54 Основной инстинкт Скачать торрент  

Основной инстинкт | Basic Instinct
Год выпуска: 1992
Страна: США, Франция, Великобритания
Студия: Canal+ [fr], Carolco Pictures Inc.
Жанр: Триллер, криминал, детектив
Продолжительность: 02:08:13
Перевод: Профессиональный двухголосый | CP-Digital
Субтитры: отсутсвуют

Режиссер: Пол Верховен

rating

В ролях: Майкл Дуглас, Шэрон Стоун, Джордж Дзундза, Джинн Трипплхорн, Дэнис Арндт, Лейлани Сарелл, Брюс А. Янг, Челси Росс, Дороти Мэлоун, Уэйн Найт, Дэниэл фон Барген, Стивен Тоболовски, Бенжамин Мутон, Джек МакГи, Билл Кейбл, Стивен Роу, Митч Пиледжи, Мэри Пэт Глисон, Фреда Фо Шен, Уильям Дафф-Гриффин, Джеймс Ребхорн, Дэвид Уэллс, Брэдфорд Инглиш, Мэри Энн Роджерс, Адила Барнс, Ирен Ольга Лопез, Хуанита Дженнингс

Описание: Убийство рок-звезды дает старт цепочке загадочных преступлений, которые вскоре пронесутся по Сан-Франциско. Детектив Ник Карран считает главной подозреваемой создательницу детективных бестселлеров Кэтрин Трэмелл, которая была знакома с жертвой и, кроме того, описала схожее убийство в последнем романе. Однако Кэтрин легко манипулирует доверчивым Карраном, лишает его инстинкта самосохранения, заставляет путаться в ее собственных фантазиях и постепенно превращает в одного из героев своего нового произведения...

Качество: UHD BDRemux 2160p | Dolby Vision TV
Формат: MP4

Видео: 3840x2160 at 24.000 fps, MPEG-H HEVC HDR, Dolby Vision Video, 55998 kbps avg
Аудио: 48 kHz, AC3, 5.1, 448 Kbps | Профессиональный двухголосый | CP-Digital | RUS |
Данный вид релизов (контейнер MP4) предназначен для встроенного в ТВ (соответственно, с поддержкой DV) плеер.
Т.Е. Можно использовать как USB flash/HDD, так и DLNA / Plex - подобные сервисы/программы. дополнительный-внешний плеер не обязателен.

Внимание!
На моделях LG 2016 возможны сюрпризы "через раз", 2017-2018 должно идти без сюрпризов )
скриншот  скриншот  скриншот  скриншот  скриншот  

General
Complete name : F:Video\Basic.Instinct.1992.BDREMUX.2160p.HDR.DV_TV.seleZen.mp4
Format : MPEG-4
Format profile : Base Media / Version 2
Codec ID : mp42 (mp42/dby1/isom)
File size : 63.2 GiB
Duration : 2 h 8 min
Overall bit rate : 70.5 Mb/s
Encoded date : UTC 2021-06-15 01:08:20
Tagged date : UTC 2021-06-15 01:08:20

Video #1
ID : 1
Format : HEVC
Format/Info : High Efficiency Video Coding
Format profile : Main 10@L5.1@High
HDR format : SMPTE ST 2086, HDR10 compatible
Codec ID : hev1
Codec ID/Info : High Efficiency Video Coding
Duration : 2 h 8 min
Bit rate : 56.0 Mb/s
Width : 3 840 pixels
Height : 2 160 pixels
Display aspect ratio : 16:9
Frame rate mode : Constant
Frame rate : 24.000 FPS
Color space : YUV
Chroma subsampling : 4:2:0 (Type 2)
Bit depth : 10 bits
Bits/(Pixel*Frame) : 0.281
Stream size : 50.2 GiB (79%)
Default : No
Encoded date : UTC 2021-06-15 01:08:20
Tagged date : UTC 2021-06-15 01:08:20
Color range : Limited
Color primaries : BT.2020
Transfer characteristics : PQ
Matrix coefficients : BT.2020 non-constant
Mastering display color pri : BT.2020
Mastering display luminance : min: 0.0001 cd/m2, max: 1000 cd/m2
Codec configuration box : hvcC

Video #2
ID : 2
Format : HEVC
Format/Info : High Efficiency Video Coding
Format profile : Main 10@L5.1@High
HDR format : Dolby Vision, Version 1.0, dvhe.07.06, EL+RPU, Blu-ray compatible / SMPTE ST 2086, HDR10 compatible
Codec ID : dvhe
Codec ID/Info : High Efficiency Video Coding with Dolby Vision
Duration : 2 h 8 min
Bit rate : 14.1 Mb/s
Width : 1 920 pixels
Height : 1 080 pixels
Display aspect ratio : 16:9
Frame rate mode : Constant
Frame rate : 24.000 FPS
Color space : YUV
Chroma subsampling : 4:2:0 (Type 2)
Bit depth : 10 bits
Bits/(Pixel*Frame) : 0.283
Stream size : 12.6 GiB (20%)
Default : No
Encoded date : UTC 2021-06-15 01:08:20
Tagged date : UTC 2021-06-15 01:08:20
Color range : Limited
Color primaries : BT.2020
Transfer characteristics : PQ
Matrix coefficients : BT.2020 non-constant
Mastering display color pri : BT.2020
Mastering display luminance : min: 0.0001 cd/m2, max: 1000 cd/m2
Codec configuration box : hvcC+dvcC

Audio
ID : 3
Format : AC-3
Format/Info : Audio Coding 3
Commercial name : Dolby Digital
Codec ID : ac-3
Duration : 2 h 8 min
Bit rate mode : Constant
Bit rate : 448 kb/s
Channel(s) : 6 channels
Channel layout : L R C LFE Ls Rs
Sampling rate : 48.0 kHz
Frame rate : 31.250 FPS (1536 SPF)
Compression mode : Lossy
Stream size : 411 MiB (1%)
Language : Russian
Service kind : Complete Main
Default : No
Encoded date : UTC 2021-06-15 01:08:20
Tagged date : UTC 2021-06-15 01:08:20




Скачать Основной инстинкт через торрент https://st-kp-yandex-net.translate.goog/images/film_iphone/iphone360_2441.jpg Скачать, смотреть онлайн Основной инстинкт бесплантно в хорошем качестве Описание: Убийство рок-звезды дает старт цепочке загадочных преступлений, которые вскоре пронесутся по Сан-Франциско. Детектив Ник Карран ... 10 10 2
Торрент: Зарегистрирован [2021-06-16 00:54] · скачан: 12 раз
Статус: √ проверено
Размер: 63.16 GB
Как cкачать? Как скачать Основной инстинкт через торрент | UTorrent

% Раздел Тема Автор DL S | L
Ultra HD (UHD: 2K, 4K, 8K) [ 69.48 GB ] Основной инстинкт / Basic Instinct | MVO | 2160p, (Dolby Vision bober100 Скачать
1 | 0
Ultra HD (UHD: 2K, 4K, 8K) [ 53.57 GB ] Основной инстинкт / Basic Instinct | MVO | 2160p bober100 Скачать
1 | 0
Фильмы (HD 720p, 1080p) (48-60 fps) [ 6.87 GB ] Основной инстинкт / Basic Instinct | MVO | 720p 60 fps от еnvy / NNNB еnvy Скачать
1 | 1
Фильмы [HD 720p, 1080p] (Хороший звук DUB, MVO) [ 6.65 GB ] Основной инстинкт / Basic Instinct | MVO | 720p _denis_100 Скачать
1 | 0

28-11-2019 20:33  


Отключить вcю реклaмy на сайте, в т.ч. и в плеере онлайн просмотра!

    Дорогой пользователь! Огромная просьба, поблагодарите релизера, оцените раздачу и оставьте свои комментарий, если Вы скачали Основной инстинкт через торрент бесплатно!!
    Комментировать посты могут только пользователи прошедшие не сложную регистрацию
    Показать сообщения:    


    Основной инстинкт через торрент
    Скачать бесплатно Основной инстинкт
    Основной инстинкт скачать торрент
    Основной инстинкт смотреть онлайн
    Cкачать фильм Основной инстинкт бесплатно
    Основной инстинкт скачать торрент в хорошем качестве
    Основной инстинкт смотреть онлайн бесплатно в хорошем качестве
    Вы не можете начинать темы
    Вы не можете отвечать на сообщения
    Вы не можете редактировать свои сообщения
    Вы не можете удалять свои сообщения
    Вы не можете голосовать в опросах
    Вы не можете прикреплять файлы к сообщениям
    Вы можете скачивать файлы
    Основной инстинкт / Basic Instinct [1992, Триллер, криминал, детектив, UHD BDRemux 2160p, ] DVO [CP-Digital] смотреть онлайн, скачать торрент picoco.icu