Доктор Стрэндж

Лицензия

Добыча

MVO

Дом дракона

1 сезон

Тор

Лицензия

Мэверик

Лицензия

Там, где раки поют

MVO

Властелин колец

1 сезон

Ultimate

pack

Рекомендуем

30

Repack

ВАЖНО

ВАЖНО

Ghostwire

RePack

jed

RePack

nioh2

RePack

RDR2

RePack

NEED FOR SPEED™ PAYBACK

RePack

скачать торрент

Кинопоиск HD

Острые козырьки 6 сезон

6 сезон

FAR CRY 6

RePack

скачать торрент

Лицензия

скачать торрент

MVO

1

1 сезон

скачать торрент

1 сезон

скачать торрент

Лицензия

  

Длинный день Кольки Павлюкова (Константин Бромберг) [1968 г., мелодрама, семейный, короткометражный, SATRip-AVC]

Длинный день Кольки Павлюкова через торрент piratbit.org

Раздают: 2 [ 0 KB/s ]
Размер: 634 MB | Добавлен: 1 год 3 мес. назад | Торрент скачан:31 раз
Смотреть онлайн | Скачать   

23-06-2021 14:47 Длинный день Кольки Павлюкова Скачать торрент  

Длинный день Кольки Павлюкова

Год выпуска: 1968
Страна: СССР | ТО «Экран»
Жанр: мелодрама, семейный, короткометражный
Продолжительность: 00:32:11
Перевод: не требуется

Режиссер: Константин Бромберг

В ролях: Борис Осипов, Нина Сазонова, Алла Ларионова, Николай Рыбников, Николай Смирнов, Ольга Науменко, Любовь Калюжная, Коля Смоляков, Катя Лихитченко, Н. Волкова

Описание: В небольшом поселке живет Коля Павлюков. Никак он не может найти себе дело по душе. Но вот в поселок, спустя много лет после Великой Отечественной войны, приезжает фронтовой друг погибшего отца Коли. Проходит лишь один день, один длинный день...

Инфо: Дебютная работа режиссера Константина Бромберга снявшего фильмы "Приключения Электроника" и "Чародеи".



Файл
Формат: MKV
Кодек: x264
Качество: SATRip-AVC (DVB)
Видео: MPEG-4 AVC, 720x574@768x574, 25.000 fps, 2558 kbps, 0.248 bit/pixel
Аудио: Русский, AC3, 2 chnls, 192 kbps
x264 [info]: frame I:260 Avg QP:17.79 size: 49901
x264 [info]: frame P:10850 Avg QP:18.46 size: 26604
x264 [info]: frame B:37185 Avg QP:20.30 size: 8497
x264 [info]: consecutive B-frames: 1.7% 2.2% 7.8% 28.1% 23.3% 30.1% 4.2% 1.5% 0.7% 0.2% 0.1% 0.0% 0.1%
Format : Matroska
Format version : Version 4
File size : 634 MiB
Duration : 32 min 12 s
Overall bit rate : 2 753 kb/s
Movie name : Длинный день Кольки Павлюкова (1968) - Rip by -{am}-
Encoded date : UTC 2021-06-23 07:22:11
Writing application : mkvmerge v7.2.0 ('On Every Street') 32bit built on Sep 13 2014 15:42:11
Writing library : libebml v1.3.0 + libmatroska v1.4.1
Attachments : poster.png

Video
ID : 1
Format : AVC
Format/Info : Advanced Video Codec
Format profile : High@L4.1
Format settings : CABAC / 16 Ref Frames
Format settings, CABAC : Yes
Format settings, Reference : 16 frames
Codec ID : V_MPEG4/ISO/AVC
Duration : 32 min 11 s
Bit rate : 2 558 kb/s
Width : 720 pixels
Height : 574 pixels
Display aspect ratio : 4:3
Frame rate mode : Constant
Frame rate : 25.000 FPS
Color space : YUV
Chroma subsampling : 4:2:0
Bit depth : 8 bits
Scan type : Progressive
Bits/(Pixel*Frame) : 0.248
Stream size : 589 MiB (93%)
Title : Dlinnyj.den.Kolki.Pavlyukova.1968.{am}.768.Rus
Writing library : x264 core 163 r3059+79M f2a8266 t_mod_test_xavc [(8 & 10)-bit@all X86_64]
Encoding settings : cabac=1 / ref=16 / deblock=1:-3:-2 / analyse=0x3:0x133 / me=umh / subme=11 / psy=1 / fade_compensate=0.00 / psy_rd=1.07:0.10 / mixed_ref=1 / me_range=48 / chroma_me=1 / trellis=2 / 8x8dct=1 / cqm=2 / deadzone=21,11 / fast_pskip=0 / chroma_qp_offset=-3 / threads=18 / lookahead_threads=4 / sliced_threads=0 / nr=0 / decimate=0 / interlaced=0 / bluray_compat=0 / constrained_intra=0 / fgo=0 / bframes=12 / b_pyramid=2 / b_adapt=2 / b_bias=0 / direct=3 / weightb=1 / open_gop=0 / weightp=2 / keyint=250 / keyint_min=25 / scenecut=40 / intra_refresh=0 / rc_lookahead=40 / rc=crf / mbtree=0 / crf=17.5000 / qcomp=0.60 / qpmin=0:0:0 / qpmax=30:30:30 / qpstep=4 / vbv_maxrate=62500 / vbv_bufsize=78125 / crf_max=0.0 / nal_hrd=none / filler=0 / ip_ratio=1.25 / pb_ratio=1.30 / aq=3:1.00 / aq-sensitivity=10.00 / aq-factor=1.00:1.00:1.00 / aq2=0 / aq3=0
Language : Russian
Default : Yes
Forced : No
Color range : Limited
Color primaries : BT.601 PAL
Transfer characteristics : BT.470 System B/G
Matrix coefficients : BT.470 System B/G

Audio
ID : 2
Format : AC-3
Format/Info : Audio Coding 3
Commercial name : Dolby Digital
Codec ID : A_AC3
Duration : 32 min 12 s
Bit rate mode : Constant
Bit rate : 192 kb/s
Channel(s) : 2 channels
Channel layout : L R
Sampling rate : 48.0 kHz
Frame rate : 31.250 FPS (1536 SPF)
Compression mode : Lossy
Stream size : 44.2 MiB (7%)
Title : Original
Language : Russian
Service kind : Complete Main
Default : Yes
Forced : No



Скачать Длинный день Кольки Павлюкова через торрент https://pic1.kartinco.top/new/img/2021-06/24/req3piolp2j54sgwftd1s6d64.png Скачать, смотреть онлайн Длинный день Кольки Павлюкова бесплантно в хорошем качестве Описание: В небольшом поселке живет Коля Павлюков. Никак он не может найти себе дело по душе. Но вот в поселок, спустя много лет после ... 10 10 3
Торрент: Зарегистрирован [2021-06-23 14:47] · скачан: 31 раз
Статус: √ проверено
Размер: 634 MB
Как cкачать? Как скачать Длинный день Кольки Павлюкова через торрент | UTorrent

28-11-2019 20:33  


Отключить вcю реклaмy на сайте, в т.ч. и в плеере онлайн просмотра!

    Дорогой пользователь! Огромная просьба, поблагодарите релизера, оцените раздачу и оставьте свои комментарий, если Вы скачали Длинный день Кольки Павлюкова через торрент бесплатно!!
    Комментировать посты могут только пользователи прошедшие не сложную регистрацию
    Показать сообщения:    


    Длинный день Кольки Павлюкова через торрент
    Скачать бесплатно Длинный день Кольки Павлюкова
    Длинный день Кольки Павлюкова скачать торрент
    Длинный день Кольки Павлюкова смотреть онлайн
    Cкачать фильм Длинный день Кольки Павлюкова бесплатно
    Длинный день Кольки Павлюкова скачать торрент в хорошем качестве
    Длинный день Кольки Павлюкова смотреть онлайн бесплатно в хорошем качестве
    Вы не можете начинать темы
    Вы не можете отвечать на сообщения
    Вы не можете редактировать свои сообщения
    Вы не можете удалять свои сообщения
    Вы не можете голосовать в опросах
    Вы не можете прикреплять файлы к сообщениям
    Вы можете скачивать файлы