1 сезон

3 сезон

iTunes

1

iTunes

MVO

iTunes

13

1 сезон

RePack

30

Deluxe

pack

Лицензия

ВАЖНО

ИГРА 18+

pack

RePack

MK11

RePack

jed

RePack

fifa19

RePack

RDR2

RePack

NEED FOR SPEED™ PAYBACK

4 сезон

9 сезон

Бесстыжие 9 сезон

Все сериалы

все сериалы на PB.wtf

RePack

FAR CRY 5

Anonymous, добрый вечер, мы катастрофически не успеваем собрать деньги на оплату серверов, помогите нам пожалуйста 5,10,15р., для нас важна любая помощь . В качестве благодарности мы отключим Вам всю рекламу на сайте (укажите свой ник в строку Ваше имя)!

×
  
Magnet ссылка

Лука / Luca (Энрико Касароса) [2021, Мультфильм, фэнтези, комедия, приключения, семейный, WEB-DL 1080p] DVO [Pazl Voice] piratbit.org

Лука через торрент piratbit.org

Раздают: 23 [ 226 KB/s ]
Размер: 5.34 GB | Добавлен: 1 мес. 1 д. назад | Торрент скачан:390 раз
Скачать  

27-06-2021 06:59 Лука Скачать торрент  

Лука | Luca
Год выпуска: 2021
Страна: США
Выпущено: Pixar Animation Studios, Walt Disney Pictures
Жанр: Мультфильм, фэнтези, комедия, приключения, семейный
Продолжительность: 01:35:15
Перевод: Любительский (двухголосый) | Pazl Voice
Субтитры: Русские (Full [FOCS]), английские (SDH)

Режиссер: Энрико Касароса

rating


В ролях: Джейкоб Тремблей, Джек Дилан Грейзер, Эмма Берман, Саверио Раймондо, Майя Рудольф, Джим Гэффиган, Сэнди Мартин, Саша Барон Коэн, Марко Барричелли, Джакомо Джианниотти

Описание: Незабываемые каникулы, в которых есть место и домашней пасте, и мороженому, и бесконечным поездкам на мопеде мальчик по имени Лука проводит в красивом приморском городке, расположенном на итальянской Ривьере. Ни одно приключение Луки не обходится без участия его нового лучшего друга, и беззаботность отдыха омрачает только лишь тот факт, что на самом деле в облике мальчика скрывается морской монстр из глубин лагуны, на берегу которой стоит городок.

Качество: WEB-DL 1080p
Формат: MKV

Видео: MPEG-4 AVC, 6800 Кбит/с, 1920x1080
Аудио#1: Русский (AC3, 6 ch, 448 Кбит/с)
Аудио#2: английский (E-AC3 JOC, 6 ch, 768 Кбит/с)
скриншот  скриншот  скриншот  скриншот  

Полное имя : Luca.2021.1080p.DSNP.WEB-DL.DDP5.1.Atmos.H.264-MRCS_RUTOR.mkv
Формат : Matroska
Версия формата : Version 4
Размер файла : 5,34 Гбайт
Продолжительность : 1 ч. 35 м.
Режим общего битрейта : Переменный
Общий поток : 8 021 Кбит/сек
Дата кодирования : UTC 2021-06-20 10:07:39
Программа кодирования : mkvmerge v58.0.0 ('Supper's Ready') 64-bit
Библиотека кодирования : libebml v1.4.2 + libmatroska v1.6.4 / Lavf58.29.100

Видео
Идентификатор : 1
Формат : AVC
Формат/Информация : Advanced Video Codec
Профиль формата : High@L4
Настройки формата : CABAC / 4 Ref Frames
Параметр CABAC формата : Да
Параметр RefFrames формата : 4 кадра
Идентификатор кодека : V_MPEG4/ISO/AVC
Продолжительность : 1 ч. 35 м.
Вид битрейта : Переменный
Битрейт : 6 805 Кбит/сек
Максимальный битрейт : 12,7 Мбит/сек
Ширина : 1 920 пикселей
Высота : 1 080 пикселей
Соотношение сторон : 16:9
Режим частоты кадров : Постоянный
Частота кадров : 23,976 (24000/1001) кадра/сек
Цветовое пространство : YUV
Субдискретизация насыщенности : 4:2:0
Битовая глубина : 8 бит
Тип развёртки : Прогрессивная
Бит/(Пиксели*Кадры) : 0.137
Размер потока : 4,53 Гбайт (85%)
Библиотека кодирования : AVC Coding
Default : Да
Forced : Нет
Цветовой диапазон : Limited
Основные цвета : BT.709
Характеристики трансфера : BT.709
Коэффициенты матрицы : BT.709

Аудио #1
Идентификатор : 2
Формат : AC-3
Формат/Информация : Audio Coding 3
Коммерческое название : Dolby Digital
Идентификатор кодека : A_AC3
Продолжительность : 1 ч. 35 м.
Вид битрейта : Постоянный
Битрейт : 448 Кбит/сек
Каналы : 6 каналов
Channel layout : L R C LFE Ls Rs
Частота : 48,0 КГц
Частота кадров : 31,250 кадров/сек (1536 SPF)
Метод сжатия : С потерями
Размер потока : 305 Мбайт (6%)
Заголовок : Pazl Voice
Язык : Russian
Service kind : Complete Main
Default : Да
Forced : Нет

Аудио #2
Идентификатор : 3
Формат : E-AC-3 JOC
Формат/Информация : Enhanced AC-3 with Joint Object Coding
Коммерческое название : Dolby Digital Plus with Dolby Atmos
Идентификатор кодека : A_EAC3
Продолжительность : 1 ч. 35 м.
Вид битрейта : Постоянный
Битрейт : 768 Кбит/сек
Каналы : 6 каналов
Channel layout : L R C LFE Ls Rs
Частота : 48,0 КГц
Частота кадров : 31,250 кадров/сек (1536 SPF)
Метод сжатия : С потерями
Размер потока : 523 Мбайт (10%)
Язык : English
Service kind : Complete Main
Default : Нет
Forced : Нет
Complexity index : 16
Number of dynamic objects : 15
Bed channel count : 1 канал
Bed channel configuration : LFE

Текст #1
Идентификатор : 4
Формат : UTF-8
Идентификатор кодека : S_TEXT/UTF8
Идентификатор кодека/Информация : UTF-8 Plain Text
Продолжительность : 1 ч. 33 м.
Битрейт : 95 бит/сек
Count of elements : 1462
Размер потока : 65,3 Кбайт (0%)
Заголовок : Full |FOCS|
Язык : Russian
Default : Нет
Forced : Нет

Текст #2
Идентификатор : 5
Формат : UTF-8
Идентификатор кодека : S_TEXT/UTF8
Идентификатор кодека/Информация : UTF-8 Plain Text
Продолжительность : 1 ч. 34 м.
Битрейт : 72 бит/сек
Count of elements : 1989
Размер потока : 50,4 Кбайт (0%)
Заголовок : SDH
Язык : English
Default : Нет
Forced : Нет

piratbit.org



Скачать Лука через торрент https://i1.imageban.ru/out/2021/06/20/ed4168da69ca1de3930fa4e80d8a951d.png Скачать фильм Лука через торрент бесплантно в хорошем качестве Описание: Незабываемые каникулы, в которых есть место и домашней пасте, и мороженому, и бесконечным поездкам на мопеде мальчик по имени ... 10 10 9
Торрент: Зарегистрирован [2021-06-27 06:59] · скачан: 390 раз
Статус: T временная
Размер: 5.34 GB
Как cкачать? Как скачать Лука через торрент | UTorrent

% Раздел Тема Автор DL S | L
T Иностранные мультфильмы [ 1.75 GB ] Лука / Luca [2021 Мультфильм WEB-DLRip] DVO [Pazl Voice] bober100 Скачать
20 | 0
? Оформление раздач (Кино, Видео и ТВ) [ 5.59 GB ] Лука / Luca [2021 Мультфильм WEB-DL 1080p Чистый звук] Felix085 Скачать
15 | 0
Фильмы до 2000 г. [ 1.63 GB ] Звездные войны: Эпизод 4 – Новая надежда / Star Wars: Episode IV - A New Hope [1977 BDRip] + [MVO] killermax2013 Скачать
1 | 0
Сборники на DVD и Сиквелы [DVDrip, WEB-DLRip, HDrip, BDRip] [ 4.36 GB ] Звёздные войны 123456 / Star Wars [1977 1980 1983 1999 2002 2005 г HDTVRip-AVC] DUB - Мега-сборка на 1 DVD L_E_X Скачать
4 | 0
T Релизы по Парсеру [Игры, Сериалы и Фильмы и другое...] [ 1.45 GB ] Другая Жизнь / OtherLife [2017 WEB-DLRip-AVC] [MVO] killermax2013 Скачать
2 | 0
Бокс [ 4.69 GB ] Ruslan Chagaev vs Lucas Browne / Руслан Чагаев - Лукас Браун / + Андеркарт [05.03.2016 Бокс HDTVRip/720p 50fps Матч ТВ HD RU] Anonymous Скачать
1 | 0
T Фильмы 2015 (Звук TS, Cam, VO, DVO) [ 748 MB ] Кербела / Karbala [2015 Польша военный DVDRip] DVO без рекламы Один 777 Скачать
1 | 0

28-11-2019 20:33  

Отключить всю рекламу на сайте


    Дорогой пользователь! Огромная просьба, поблагодарите релизера, оцените раздачу и оставьте свои комментарий, если Вы скачали Лука через торрент бесплатно! Внесите свою лепту в развитие PiratBit!
    Комментировать посты могут только пользователи прошедшие не сложную регистрацию
    Показать сообщения:    

    Лука через торрент
    Скачать бесплатно Лука
    Лука скачать торрент
    Лука смотреть онлайн
    Cкачать фильм Лука бесплатно
    Лука скачать торрент в хорошем качестве
    Лука смотреть онлайн бесплатно в хорошем качестве


    Вы не можете начинать темы
    Вы не можете отвечать на сообщения
    Вы не можете редактировать свои сообщения
    Вы не можете удалять свои сообщения
    Вы не можете голосовать в опросах
    Вы не можете прикреплять файлы к сообщениям
    Вы можете скачивать файлы