Anonymous, добрый день, присоединяйтесь к нам в Telegram!, здесь всегда актуальный адрес сайта, оперативная поддержка и многое другое!

>

5.5

iTunes

7.4

iTunes

7.9

iTunes

1

7.7

1 сезон

6.8

iTunes

7.3

1 сезон

13

6.7

1 сезон

8.3

RePack

30

ULTIMATE

pack

9.9

Лицензия

ВАЖНО

ИГРА 18+

pack

7.3

RePack

MK11

7.7

RePack

jed

7.8

RePack

fifa19

8.5

RePack

RDR2

RePack

NEED FOR SPEED™ PAYBACK

4 сезон

9 сезон

Бесстыжие 9 сезон

Все сериалы

все сериалы на PB.wtf

RePack

FAR CRY 5

Anonymous, добрый день, мы катастрофически не успеваем собрать деньги на оплату серверов, помогите нам пожалуйста 5,10,15р., для нас важна любая помощь . В качестве благодарности мы отключим Вам всю рекламу на сайте (укажите свой ник в строку Ваше имя)!

×
  
Magnet ссылка

Лука / Luca (Энрико Касароса) [2021, Мультфильм, фэнтези, комедия, приключения, семейный, BDRip 1080p] DUB [iTunes] piratbit.org

Лука через торрент piratbit.org

Раздают: 10 [ 125 KB/s ]
Размер: 8.13 GB | Добавлен: 1 мес. 23 д. назад | Торрент скачан:284 раза
Смотреть онлайн Лука | Скачать    Ребята, помогите собрать деньги на оплату серверов!!!

27-06-2021 06:59 Лука Скачать торрент  

Лука | Luca
Год выпуска: 2021
Страна: США
Выпущено: Pixar Animation Studios, Walt Disney Pictures
Жанр: Мультфильм, фэнтези, комедия, приключения, семейный
Продолжительность: 01:35:15
Перевод: Дублированный | iTunes
Субтитры: Русские (Forced, full), английские

Режиссер: Энрико Касароса

rating

В ролях: Джейкоб Тремблей, Джек Дилан Грейзер, Саша Барон Коэн, Майя Рудольф, Джакомо Джианниотти, Джим Гэффиган, Сэнди Мартин, Эмма Берман, Франческа Фанти, Джино Д'Акампо, Марко Барричелли, Саверио Раймондо, Марина Массирони, Джузеппе Россо

Описание: Море, солнце, мопеды и охлаждающее джелато — так в одном из прибрежных городков итальянской Ривьеры проходят летние каникулы мальчика по имени Лука. В компании нового друга Альберто он проводит жаркие дни, наполненные удивительными событиями. Приключения Луки омрачает лишь то, что они с Альберто — монстры из морских глубин, на которых охотятся все рыбаки города.

Качество: BDRip 1080p
Формат: MKV

Видео: MPEG-4 AVC, 1920x1038, 11.2 Mbit/s, 23.976 fps
Аудио #01: 48 kHz, AC3, 5.1, 384 Kbps | iTunes | RUS |
Аудио #02: 48 kHz, AC3, 5.1, 640 Kbps | Оригинал | ENG |
скриншот  скриншот  скриншот  скриншот  скриншот  

General
Unique ID : 151676524073219324372477605817257555218 (0x721BD6014C7F9BE6784E4C6CBB1BF512)
Complete name : F:VideoLuca.2021.BDRip.1080p.seleZen.mkv
Format : Matroska
Format version : Version 4
File size : 8.13 GiB
Duration : 1 h 35 min
Overall bit rate : 12.2 Mb/s
Movie name : Luca 2021 from seleZen
Encoded date : UTC 2021-09-02 20:55:54
Writing application : mkvmerge v59.0.0 ('Shining Star') 64-bit
Writing library : libebml v1.4.2 + libmatroska v1.6.4

Video
ID : 1
Format : AVC
Format/Info : Advanced Video Codec
Format profile : High@L4.1
Format settings : CABAC / 4 Ref Frames
Format settings, CABAC : Yes
Format settings, Reference : 4 frames
Codec ID : V_MPEG4/ISO/AVC
Duration : 1 h 35 min
Bit rate : 11.2 Mb/s
Width : 1 920 pixels
Height : 1 038 pixels
Display aspect ratio : 1.85:1
Frame rate mode : Constant
Frame rate : 23.976 (24000/1001) FPS
Color space : YUV
Chroma subsampling : 4:2:0
Bit depth : 8 bits
Scan type : Progressive
Bits/(Pixel*Frame) : 0.234
Stream size : 7.45 GiB (92%)
Writing library : x264 core 146 -from seleZen
Encoding settings : cabac=1 / ref=4 / deblock=1:-2:-2 / analyse=0x3:0x133 / me=umh / subme=11 / psy=1 / psy_rd=1.05:0.05 / mixed_ref=1 / me_range=48 / chroma_me=1 / trellis=2 / 8x8dct=1 / cqm=0 / deadzone=21,11 / fast_pskip=0 / chroma_qp_offset=-3 / threads=36 / lookahead_threads=6 / sliced_threads=0 / nr=0 / decimate=0 / interlaced=0 / bluray_compat=0 / constrained_intra=0 / bframes=9 / b_pyramid=2 / b_adapt=2 / b_bias=0 / direct=3 / weightb=1 / open_gop=0 / weightp=2 / keyint=240 / keyint_min=23 / scenecut=40 / intra_refresh=0 / rc_lookahead=50 / rc=2pass / mbtree=0 / bitrate=11200 / ratetol=1.0 / qcomp=0.60 / qpmin=0 / qpmax=51 / qpstep=4 / cplxblur=20.0 / qblur=0.5 / vbv_maxrate=50000 / vbv_bufsize=62500 / nal_hrd=none / filler=0 / ip_ratio=1.40 / pb_ratio=1.30 / aq=3:0.80
Language : English
Default : Yes
Forced : No

Audio #1
ID : 2
Format : AC-3
Format/Info : Audio Coding 3
Commercial name : Dolby Digital
Codec ID : A_AC3
Duration : 1 h 35 min
Bit rate mode : Constant
Bit rate : 384 kb/s
Channel(s) : 6 channels
Channel layout : L R C LFE Ls Rs
Sampling rate : 48.0 kHz
Frame rate : 31.250 FPS (1536 SPF)
Compression mode : Lossy
Stream size : 262 MiB (3%)
Title : iTunes
Language : Russian
Service kind : Complete Main
Default : Yes
Forced : Yes

Audio #2
ID : 3
Format : AC-3
Format/Info : Audio Coding 3
Commercial name : Dolby Digital
Codec ID : A_AC3
Duration : 1 h 35 min
Bit rate mode : Constant
Bit rate : 640 kb/s
Channel(s) : 6 channels
Channel layout : L R C LFE Ls Rs
Sampling rate : 48.0 kHz
Frame rate : 31.250 FPS (1536 SPF)
Compression mode : Lossy
Stream size : 436 MiB (5%)
Title : Original
Language : English
Service kind : Complete Main
Default : No
Forced : No

Text #1
ID : 4
Format : UTF-8
Codec ID : S_TEXT/UTF8
Codec ID/Info : UTF-8 Plain Text
Duration : 1 h 20 min
Bit rate : 0 b/s
Count of elements : 6
Stream size : 87.0 Bytes (0%)
Title : Forced
Language : Russian
Default : Yes
Forced : Yes

Text #2
ID : 5
Format : UTF-8
Codec ID : S_TEXT/UTF8
Codec ID/Info : UTF-8 Plain Text
Duration : 1 h 33 min
Bit rate : 83 b/s
Count of elements : 1304
Stream size : 57.5 KiB (0%)
Title : Full
Language : Russian
Default : No
Forced : No

Text #3
ID : 6
Format : UTF-8
Codec ID : S_TEXT/UTF8
Codec ID/Info : UTF-8 Plain Text
Duration : 1 h 33 min
Bit rate : 58 b/s
Count of elements : 1548
Stream size : 39.9 KiB (0%)
Title : Full
Language : English
Default : No
Forced : No

Menu
00:00:00.000 : Prologue
00:02:27.898 : Meet Luca
00:06:27.220 : Family Lunch
00:08:29.884 : Meet Alberto
00:11:19.512 : World Above
00:14:35.291 : Alberto's Hideout
00:16:30.197 : Paranoid
00:17:07.735 : Best Friends
00:21:19.486 : Rooftop
00:23:31.994 : Busted
00:26:01.393 : Running Away
00:28:11.815 : Vespatown
00:32:55.515 : Meet Giulia
00:35:39.971 : Bike Test
00:37:29.372 : Massimo Dinner
00:41:38.204 : Parents Arrive
00:42:25.876 : Massimo Chores
00:45:04.118 : Wrong Kid
00:46:06.680 : Signing Up
00:48:53.639 : Close Call
00:51:00.098 : Soccer Mom
00:52:04.746 : Telescope
00:54:33.562 : Saturn Dream
00:56:18.834 : Vespa Gazing
00:58:30.340 : Race Training
01:00:07.520 : Spotted
01:00:43.598 : Wipeout
01:02:10.059 : Splash
01:04:51.929 : Without Alberto
01:06:49.088 : Reconciliation
01:09:33.836 : Race Begins
01:13:19.978 : Bike Race
01:16:47.477 : Finish Line
01:19:33.476 : Giulia Packing
01:20:53.723 : Parting Ways
01:24:34.944 : Credits
01:33:41.532 : In The Deep

piratbit.org



Скачать Лука через торрент https://b.radikal.ru/b04/2109/cb/e26db0833f53.jpg Скачать, смотреть онлайн Лука бесплантно в хорошем качестве Описание: Море, солнце, мопеды и охлаждающее джелато — так в одном из прибрежных городков итальянской Ривьеры проходят летние каникулы ... 10 10 22
Info! Золотая раздача, скачанное не засчитывается.
Торрент: Зарегистрирован [2021-09-03 03:13] · скачан: 284 раз
Статус: √ проверено
Размер: 8.13 GB
Как cкачать? Как скачать Лука через торрент | UTorrent

% Раздел Тема Автор DL S | L
Иностранные мультфильмы [ 1.42 GB ] Лука / Luca [2021 Мультфильм BDRip] - Twi7ter Скачать
121 | 1
Иностранные мультфильмы [ 2.05 GB ] Лука / Luca [2021 Мультфильм HDRip-AVC] от MediaBit Lithuania Скачать
8 | 0
Ultra HD (UHD: 2K, 4K, 8K) [ 39.59 GB ] Лука / Luca [2021 Мультфильм UHD BDRemux 2160p] bober100 Скачать
3 | 0
Зарубежные Мультфильмы (BDRip 1080p, 720p, Blu-ray, BD-Remux) [ 22.62 GB ] Лука / Luca [2021 Мультфильм BD Remux 1080p] bober100 Скачать
3 | 0
Зарубежные Мультфильмы (BDRip 1080p, 720p, Blu-ray, BD-Remux) [ 4.34 GB ] Лука / Luca [2021 Мультфильм BDRip 720p] bober100 Скачать
12 | 0
T Иностранные мультфильмы [ 1.75 GB ] Лука / Luca [2021 Мультфильм WEB-DLRip] DVO [Pazl Voice] bober100 Скачать
10 | 0
Фильмы до 2000 г. [ 1.63 GB ] Звездные войны: Эпизод 4 – Новая надежда / Star Wars: Episode IV - A New Hope [1977 BDRip] + [MVO] killermax2013 Скачать
1 | 2

28-11-2019 20:33  

Отключить всю рекламу на сайте

    Дорогой пользователь! Огромная просьба, поблагодарите релизера, оцените раздачу и оставьте свои комментарий, если Вы скачали Лука через торрент бесплатно!
    Комментировать посты могут только пользователи прошедшие не сложную регистрацию
    Показать сообщения:    

    Лука через торрент
    Скачать бесплатно Лука
    Лука скачать торрент
    Лука смотреть онлайн
    Cкачать фильм Лука бесплатно
    Лука скачать торрент в хорошем качестве
    Лука смотреть онлайн бесплатно в хорошем качестве


    Вы не можете начинать темы
    Вы не можете отвечать на сообщения
    Вы не можете редактировать свои сообщения
    Вы не можете удалять свои сообщения
    Вы не можете голосовать в опросах
    Вы не можете прикреплять файлы к сообщениям
    Вы можете скачивать файлы