Доктор Стрэндж

Лицензия

Добыча

MVO

Дом дракона

1 сезон

Тор

Лицензия

Мэверик

Лицензия

Там, где раки поют

MVO

Властелин колец

1 сезон

Ultimate

pack

Рекомендуем

30

Repack

ВАЖНО

ВАЖНО

Ghostwire

RePack

jed

RePack

nioh2

RePack

RDR2

RePack

NEED FOR SPEED™ PAYBACK

RePack

скачать торрент

Кинопоиск HD

Острые козырьки 6 сезон

6 сезон

FAR CRY 6

RePack

скачать торрент

Лицензия

скачать торрент

MVO

1

1 сезон

скачать торрент

1 сезон

скачать торрент

Лицензия

  

Благие намерения (Андрей Бенкендорф) [1984 г., драма, экранизация, SATRip-AVC]

Благие намерения через торрент piratbit.org

Размер: 1.77 GB | Добавлен: 1 год 3 мес. назад | Торрент скачан:5 раз
Смотреть онлайн Благие намерения | Скачать   

27-06-2021 10:30 Благие намерения Скачать торрент  

Благие намерения

Год выпуска: 1984 (Премьера февраль 1985 СССР)
Страна: СССР | Киностудия имени А. Довженко, ТО «Радуга»
Жанр: драма, экранизация
Продолжительность: 01:17:26
Перевод: не требуется

Режиссер: Андрей Бенкендорф

В ролях: Марина Яковлева, Юрий Платонов, Маша Баленко, Алена Мущицкая, Надя Лубочкова, Алёша Кваснюк, Сережа Семянов, Сергей Варчук, Эмилия Сердюк, Римма Маркова, Людмила Сосюра, Вячеслав Воронин, Светлана Тормахова, Раиса Куркина, Николай Шутько, Галина Долгозвяга, Лесь Сердюк, Варвара Сошальская, Регина Темир-Булат, Людмила Лобза

Описание: Экранизация одноимённой повести Альберта Лиханова.
После окончания пединститута Надежда уезжает из Киева и становится воспитательницей младшей группы школы-интерната провинциального города. Чтобы дети не чувствовали себя обделенными, она решает привлечь внимание бездетных семей к детдому...

rating

Файл
Формат: MKV
Кодек: x264
Качество: SATRip-AVC (DVB)
Видео: MPEG-4 AVC, 700x576@763x576, 25.000 fps, 3087 kbps, 0.306 bit/pixel
Аудио: Русский, AC3, 2 chnls, 192 kbps
x264 [info]: frame I:638 Avg QP:17.92 size: 45050
x264 [info]: frame P:25327 Avg QP:18.85 size: 28375
x264 [info]: frame B:90185 Avg QP:19.57 size: 11589
x264 [info]: consecutive B-frames: 1.5% 2.7% 7.4% 21.4% 22.1% 39.1% 4.0% 1.1% 0.4% 0.3% 0.0% 0.0%
Format : Matroska
Format version : Version 4
File size : 1.77 GiB
Duration : 1 h 17 min
Overall bit rate : 3 281 kb/s
Movie name : Благие намерения (1984) - Rip by -{am}-
Encoded date : UTC 2021-06-26 09:19:00
Writing application : mkvmerge v7.2.0 ('On Every Street') 32bit built on Sep 13 2014 15:42:11
Writing library : libebml v1.3.0 + libmatroska v1.4.1
Attachments : poster.png

Video
ID : 1
Format : AVC
Format/Info : Advanced Video Codec
Format profile : High@L4.1
Format settings : CABAC / 16 Ref Frames
Format settings, CABAC : Yes
Format settings, Reference : 16 frames
Codec ID : V_MPEG4/ISO/AVC
Duration : 1 h 17 min
Bit rate : 3 087 kb/s
Width : 700 pixels
Height : 576 pixels
Display aspect ratio : 4:3
Original display aspect rat : 4:3
Frame rate mode : Constant
Frame rate : 25.000 FPS
Color space : YUV
Chroma subsampling : 4:2:0
Bit depth : 8 bits
Scan type : Progressive
Bits/(Pixel*Frame) : 0.306
Stream size : 1.67 GiB (94%)
Title : Blagie.namereniya.1984.{am}.763.Rus
Writing library : x264 core 163 r3059+79M f2a8266 t_mod_test_xavc [(8 & 10)-bit@all X86_64]
Encoding settings : cabac=1 / ref=16 / deblock=1:-2:-3 / analyse=0x3:0x133 / me=umh / subme=11 / psy=1 / fade_compensate=0.00 / psy_rd=1.07:0.10 / mixed_ref=1 / me_range=48 / chroma_me=1 / trellis=2 / 8x8dct=1 / cqm=2 / deadzone=6,6 / fast_pskip=0 / chroma_qp_offset=-3 / threads=18 / lookahead_threads=4 / sliced_threads=0 / nr=0 / decimate=0 / interlaced=0 / bluray_compat=0 / constrained_intra=0 / fgo=0 / bframes=11 / b_pyramid=2 / b_adapt=2 / b_bias=0 / direct=3 / weightb=1 / open_gop=0 / weightp=2 / keyint=250 / keyint_min=25 / scenecut=40 / intra_refresh=0 / rc_lookahead=40 / rc=crf / mbtree=0 / crf=18.0000 / qcomp=0.60 / qpmin=0:0:0 / qpmax=30:30:30 / qpstep=4 / vbv_maxrate=62500 / vbv_bufsize=78125 / crf_max=0.0 / nal_hrd=none / filler=0 / ip_ratio=1.25 / pb_ratio=1.30 / aq=3:1.00 / aq-sensitivity=10.00 / aq-factor=1.00:1.00:1.00 / aq2=0 / aq3=0
Language : Russian
Default : Yes
Forced : No
Color range : Limited
Color primaries : BT.601 PAL
Transfer characteristics : BT.470 System B/G
Matrix coefficients : BT.470 System B/G

Audio
ID : 2
Format : AC-3
Format/Info : Audio Coding 3
Commercial name : Dolby Digital
Codec ID : A_AC3
Duration : 1 h 17 min
Bit rate mode : Constant
Bit rate : 192 kb/s
Channel(s) : 2 channels
Channel layout : L R
Sampling rate : 48.0 kHz
Frame rate : 31.250 FPS (1536 SPF)
Compression mode : Lossy
Stream size : 106 MiB (6%)
Title : Original
Language : Russian
Service kind : Complete Main
Default : Yes
Forced : No
скриншот  скриншот  скриншот  скриншот  

скриншот  скриншот  скриншот  скриншот  

скриншот  скриншот  скриншот  скриншот  



Скачать Благие намерения через торрент https://c.radikal.ru/c01/2106/ad/dbc9b41f6399.jpg Скачать, смотреть онлайн Благие намерения бесплантно в хорошем качестве Описание: Экранизация одноимённой повести Альберта Лиханова.После окончания пединститута Надежда уезжает из Киева и становится ... 10 10 1
Info! Серебряная раздача, засчитывается только 50% скачанного.
Торрент: Зарегистрирован [2021-06-27 10:30] · скачан: 5 раз
Статус: √ проверено
Размер: 1.77 GB
Как cкачать? Как скачать Благие намерения через торрент | UTorrent

28-11-2019 20:33  

Отключить вcю реклaмy на сайте

    Дорогой пользователь! Огромная просьба, поблагодарите релизера, оцените раздачу и оставьте свои комментарий, если Вы скачали Благие намерения через торрент бесплатно!!
    Комментировать посты могут только пользователи прошедшие не сложную регистрацию
    Показать сообщения:    


    Благие намерения через торрент
    Скачать бесплатно Благие намерения
    Благие намерения скачать торрент
    Благие намерения смотреть онлайн
    Cкачать фильм Благие намерения бесплатно
    Благие намерения скачать торрент в хорошем качестве
    Благие намерения смотреть онлайн бесплатно в хорошем качестве
    Вы не можете начинать темы
    Вы не можете отвечать на сообщения
    Вы не можете редактировать свои сообщения
    Вы не можете удалять свои сообщения
    Вы не можете голосовать в опросах
    Вы не можете прикреплять файлы к сообщениям
    Вы можете скачивать файлы