1 сезон

3 сезон

iTunes

1

iTunes

MVO

iTunes

13

1 сезон

RePack

30

Deluxe

pack

Лицензия

ВАЖНО

ИГРА 18+

pack

RePack

MK11

RePack

jed

RePack

fifa19

RePack

RDR2

RePack

NEED FOR SPEED™ PAYBACK

4 сезон

9 сезон

Бесстыжие 9 сезон

Все сериалы

все сериалы на PB.wtf

RePack

FAR CRY 5

Anonymous, добрый вечер, мы катастрофически не успеваем собрать деньги на оплату серверов, помогите нам пожалуйста 5,10,15р., для нас важна любая помощь . В качестве благодарности мы отключим Вам всю рекламу на сайте (укажите свой ник в строку Ваше имя)!

×
  
Magnet ссылка

Любовь в жаркие недели / Сезон: 1 / Серии: 1-10 из 10 (Гайк Асатрян) [2021, Комедия, WEBRip] piratbit.org

Любовь в жаркие недели через торрент piratbit.org

Раздают: 2 [ 7 KB/s ]
Размер: 1.64 GB | Добавлен: 5 д. назад | Торрент скачан:25 раз
Скачать  

28-06-2021 06:50 Любовь в жаркие недели Скачать торрент  

Любовь в жаркие недели
Год выпуска: 2021
Страна: Россия
Студия: ООО «К.Б.А.»
Жанр: Комедия
Продолжительность: ~ 00:13:00
Перевод: Не требуется
Субтитры: отсутствуют

Режиссер: Гайк Асатрян



В ролях: Зоя Бербер, Роман Попов, Елизавета Моряк, Олег Верещагин, Маруся Климова, Ольга Хохлова, Гарик Петросян

Описание: Продолжение историй героев сериала «Любовь в рабочие недели». Сразу после открытия границ три супружеские пары оказываются в соседних номерах шикарного отеля в Турции. Андрей и Кристина празднуют медовый месяц, Ира и Валера пытаются зачать малыша, а Гарик и Соня отдыхают с ребенком и тещей-авантюристкой, которая приносит немало проблем. В эти жаркие дни героев настигают неожиданные приключения, семейные неурядицы и неподдельное счастье!

Качество: WEBRip
Формат: AVI

Видео: XviD, ~ 1600 Кбит/с, 720х304, 25 Кадр/с
Аудио: 48.0 kHz, AC3 Dolby Digital, 2/0 (L,R) ch, ~ 192 kbps
скриншот  скриншот  скриншот  скриншот  скриншот  

General
Complete name : D:\моё видио\Lyubov.v.zharkie.nedeli.2021.WEB-DLRip.Files-x\01.Lyubov.v.zharkie.nedeli.2021.WEB-DLRip.Files-x.avi
Format : AVI
Format/Info : Audio Video Interleave
File size : 169 MiB
Duration : 13mn 6s
Overall bit rate : 1 806 Kbps
Writing application : VirtualDubMod 1.5.10.3 | www.virtualdub-fr.org || (build 2550/release)
Writing library : VirtualDubMod build 2550/release

Video
ID : 0
Format : MPEG-4 Visual
Format profile : Advanced Simple@L5
Format settings, BVOP : 1
Format settings, QPel : No
Format settings, GMC : No warppoints
Format settings, Matrix : Custom
Codec ID : XVID
Codec ID/Hint : XviD
Duration : 13mn 6s
Bit rate : 1 533 Kbps
Width : 720 pixels
Height : 304 pixels
Display aspect ratio : 2.35:1
Frame rate : 25.000 fps
Color space : YUV
Chroma subsampling : 4:2:0
Bit depth : 8 bits
Scan type : Progressive
Compression mode : Lossy
Bits/(Pixel*Frame) : 0.280
Stream size : 144 MiB (85%)
Writing library : XviD 73

Audio
ID : 1
Format : AC-3
Format/Info : Audio Coding 3
Mode extension : CM (complete main)
Format settings, Endianness : Big
Codec ID : 2000
Duration : 13mn 6s
Bit rate mode : Constant
Bit rate : 192 Kbps
Channel(s) : 2 channels
Channel positions : Front: L R
Sampling rate : 48.0 KHz
Bit depth : 16 bits
Compression mode : Lossy
Stream size : 18.0 MiB (11%)
Alignment : Split accross interleaves

Внимание! Раздача ведётся путём добавления новых серий; при каждом добавлении создаётся новый торрент. Чтобы начать докачку новой серии, пользователям необходимо сделать следующее:
(1) остановить скачивание,
(2) удалить старый торрент у себя из клиента (старые серии удалять не надо),
(3) скачать новый торрент и запустить его у себя в клиенте вместо старого, при этом указать клиенту путь в старую папку куда и должно происходить скачивание новых серий.

Ваш клиент при этом должен произвести хеширование (проверку) старой папки (если не производит сам - помогите ему сделать это), и будет докачивать только те серии которых у вас ещё нет. Старые серии при этом не удаляются, а продолжают раздаваться!

Eсли вы уже удалили старые серии, то предотвратить повторную закачку старых серий можно, отжав галочку в соответствующих местах при запуске нового торрента. По возможности, желательно не удалять старые серии как можно дольше чтобы релизёр не столько продолжал раздавать старые серии, а смог сконцентрироваться на новых.
piratbit.org



Скачать Любовь в жаркие недели через торрент https://a.radikal.ru/a09/2106/a5/b00981df9e8f.jpg Скачать фильм Любовь в жаркие недели через торрент бесплантно в хорошем качестве Описание: Продолжение историй героев сериала «Любовь в рабочие недели». Сразу после открытия границ три супружеские пары оказываются в ... 10 10 5
Торрент: Зарегистрирован [2021-07-23 09:55] · скачан: 25 раз
Статус: √ проверено
Размер: 1.64 GB
Как cкачать? Как скачать Любовь в жаркие недели через торрент | UTorrent

% Раздел Тема Автор DL S | L
TNT serials [ 1.63 GB ] Любовь в жаркие недели / Сезон: 1 / Серии: 1-10 из 10 [2021 WEBRip-AVC] bober100 Скачать
8 | 0
TNT serials [ 2.85 GB ] Любовь в жаркие недели / Сезон: 1 / Серии: 1-10 из 10 [2021 WEBRip 720p] bober100 Скачать
5 | 0
TNT serials [ 4.2 GB ] Любовь в жаркие недели / Сезон: 1 / Серии: 1-10 из 10 [2021 WEBRip 1080p] bober100 Скачать
5 | 0

28-11-2019 20:33  

Отключить всю рекламу на сайте

    Дорогой пользователь! Огромная просьба, поблагодарите релизера, оцените раздачу и оставьте свои комментарий, если Вы скачали Любовь в жаркие недели через торрент бесплатно! Внесите свою лепту в развитие PiratBit!
    Комментировать посты могут только пользователи прошедшие не сложную регистрацию
    Показать сообщения:    

    Любовь в жаркие недели через торрент
    Скачать бесплатно Любовь в жаркие недели
    Любовь в жаркие недели скачать торрент
    Любовь в жаркие недели смотреть онлайн
    Cкачать фильм Любовь в жаркие недели бесплатно
    Любовь в жаркие недели скачать торрент в хорошем качестве
    Любовь в жаркие недели смотреть онлайн бесплатно в хорошем качестве


    Вы не можете начинать темы
    Вы не можете отвечать на сообщения
    Вы не можете редактировать свои сообщения
    Вы не можете удалять свои сообщения
    Вы не можете голосовать в опросах
    Вы не можете прикреплять файлы к сообщениям
    Вы можете скачивать файлы