1 сезон

3 сезон

iTunes

1

iTunes

MVO

iTunes

13

1 сезон

RePack

30

Deluxe

pack

Лицензия

ВАЖНО

ИГРА 18+

pack

RePack

MK11

RePack

jed

RePack

fifa19

RePack

RDR2

RePack

NEED FOR SPEED™ PAYBACK

4 сезон

9 сезон

Бесстыжие 9 сезон

Все сериалы

все сериалы на PB.wtf

RePack

FAR CRY 5

Anonymous, доброй ночи, мы катастрофически не успеваем собрать деньги на оплату серверов, помогите нам пожалуйста 5,10,15р., для нас важна любая помощь . В качестве благодарности мы отключим Вам всю рекламу на сайте (укажите свой ник в строку Ваше имя)!

×
  
Magnet ссылка

Тайна Мосли / Mosley (Кирби Эткинс) [2019, Мультфильм, BDRip 720p] DUB [RUS Transfer / Лицензия Blu-ray RUS] piratbit.org

Тайна Мосли через торрент piratbit.org

Раздают: 8 [ 0 KB/s ]
Размер: 2.57 GB | Добавлен: 23 д. назад | Торрент скачан:105 раз
Скачать  

30-06-2021 18:27 Тайна Мосли Скачать торрент  

Тайна Мосли | Mosley
Год выпуска: 2019
Страна: Новая Зеландия, Китай
Студия: China Film Animation, Huhu Studios
Жанр: мультфильм
Продолжительность: 01:36:31
Перевод: Дублированный | Лицензия Blu-ray RUS
Субтитры: Английские

Режиссер: Кирби Эткинс

rating

В ролях: Джон Рис-Дэвис, Люси Лоулесс, Риз Дэрби, Темуэра Моррисон, Джей Саймон, Кирби Эткинс, Дэрил Хабрейкен, Тимоти Рэби, Курт Клонингер, Леа Эткинс

Описание: В далеком-далеком прошлом удивительные животные Торифанты восстают против жизни в рабстве людей и отправляются в опасное путешествие в поисках… свободы. Ведь их прошлое хранит невероятную тайну.

Качество: BDRip 720p
Формат: MKV

Видео: MPEG-4 AVC, 1280x536, 2786 Кbit/s, 24.000 fps
Аудио #01: 48 kHz, AC3, 5.1, 640 Kbps | Дублированный | Лицензия | RUS |
Аудио #02: 48 kHz, AC3, 5.1, 384 Kbps | Оригинал | ENG |
скриншот  скриншот  скриншот  скриншот  скриншот  

General
Unique ID : 213247166759576423747480559678501982078 (0xA06DE91017A8115F6A644AC125A88F7E)
Complete name : F:VideoMosley.2019.BDRip.720p.seleZen.mkv
Format : Matroska
Format version : Version 4
File size : 2.57 GiB
Duration : 1 h 36 min
Overall bit rate : 3 812 kb/s
Movie name : Mosley 2019 from seleZen
Encoded date : UTC 2021-06-30 18:09:23
Writing application : mkvmerge v55.0.0 ('Waiting For Space') 64-bit
Writing library : libebml v1.4.2 + libmatroska v1.6.4

Video
ID : 1
Format : AVC
Format/Info : Advanced Video Codec
Format profile : High@L4.1
Format settings : CABAC / 12 Ref Frames
Format settings, CABAC : Yes
Format settings, Reference : 12 frames
Codec ID : V_MPEG4/ISO/AVC
Duration : 1 h 36 min
Bit rate : 2 786 kb/s
Width : 1 280 pixels
Height : 536 pixels
Display aspect ratio : 2.40:1
Frame rate mode : Constant
Frame rate : 24.000 FPS
Color space : YUV
Chroma subsampling : 4:2:0
Bit depth : 8 bits
Scan type : Progressive
Bits/(Pixel*Frame) : 0.169
Stream size : 1.88 GiB (73%)
Writing library : x264 core 161 -from seleZen
Encoding settings : cabac=1 / ref=12 / deblock=1:-2:-2 / analyse=0x3:0x133 / me=umh / subme=10 / psy=1 / psy_rd=1.03:0.05 / mixed_ref=1 / me_range=32 / chroma_me=1 / trellis=2 / 8x8dct=1 / cqm=0 / deadzone=21,11 / fast_pskip=0 / chroma_qp_offset=-3 / threads=17 / lookahead_threads=2 / sliced_threads=0 / nr=0 / decimate=0 / interlaced=0 / bluray_compat=0 / constrained_intra=0 / bframes=8 / b_pyramid=2 / b_adapt=2 / b_bias=0 / direct=3 / weightb=1 / open_gop=0 / weightp=2 / keyint=240 / keyint_min=24 / scenecut=40 / intra_refresh=0 / rc_lookahead=40 / rc=crf / mbtree=0 / crf=16.8 / qcomp=0.60 / qpmin=0 / qpmax=51 / qpstep=4 / vbv_maxrate=50000 / vbv_bufsize=62000 / crf_max=0.0 / nal_hrd=none / filler=0 / ip_ratio=1.40 / pb_ratio=1.30 / aq=3:0.80
Language : English
Default : Yes
Forced : No

Audio #1
ID : 2
Format : AC-3
Format/Info : Audio Coding 3
Commercial name : Dolby Digital
Codec ID : A_AC3
Duration : 1 h 36 min
Bit rate mode : Constant
Bit rate : 640 kb/s
Channel(s) : 6 channels
Channel layout : L R C LFE Ls Rs
Sampling rate : 48.0 kHz
Frame rate : 31.250 FPS (1536 SPF)
Compression mode : Lossy
Stream size : 442 MiB (17%)
Title : Dub [License]
Language : Russian
Service kind : Complete Main
Default : No
Forced : No

Audio #2
ID : 3
Format : AC-3
Format/Info : Audio Coding 3
Commercial name : Dolby Digital
Codec ID : A_AC3
Duration : 1 h 36 min
Bit rate mode : Constant
Bit rate : 384 kb/s
Channel(s) : 6 channels
Channel layout : L R C LFE Ls Rs
Sampling rate : 48.0 kHz
Frame rate : 31.250 FPS (1536 SPF)
Compression mode : Lossy
Stream size : 265 MiB (10%)
Title : Original
Language : English
Service kind : Complete Main
Default : No
Forced : No

Text
ID : 4
Format : UTF-8
Codec ID : S_TEXT/UTF8
Codec ID/Info : UTF-8 Plain Text
Duration : 1 h 30 min
Bit rate : 48 b/s
Count of elements : 1019
Stream size : 32.2 KiB (0%)
Title : Full
Language : English
Default : No
Forced : No

Menu
00:00:00.000 : en:Глава 01
00:01:10.500 : en:Глава 02
00:09:05.500 : en:Глава 03
00:15:15.125 : en:Глава 04
00:26:44.417 : en:Глава 05
00:35:46.250 : en:Глава 06
00:44:06.792 : en:Глава 07
00:54:27.667 : en:Глава 08
01:03:36.958 : en:Глава 09
01:14:21.042 : en:Глава 10
01:24:59.500 : en:Глава 11

piratbit.org



Скачать Тайна Мосли через торрент https://i115.fastpic.ru/big/2021/0630/f3/4085e280a11d7054315181e4aeb4fbf3.jpg Скачать фильм Тайна Мосли через торрент бесплантно в хорошем качестве Описание: В далеком-далеком прошлом удивительные животные Торифанты восстают против жизни в рабстве людей и отправляются в опасное ... 10 10 4
Торрент: Зарегистрирован [2021-06-30 18:27] · скачан: 105 раз
Статус: √ проверено
Размер: 2.57 GB
Как cкачать? Как скачать Тайна Мосли через торрент | UTorrent

% Раздел Тема Автор DL S | L
Зарубежные Мультфильмы (BDRip 1080p, 720p, Blu-ray, BD-Remux) [ 8 GB ] Тайна Мосли / Mosley [2019 Мультфильм BDRip 1080p] DUB [RUS Transfer / Blu-ray RUS] bober100 Скачать
3 | 1
Иностранные мультфильмы [ 746 MB ] Тайна Мосли / Mosley [2019 мультфильм BDRip] DUB [RUS Transfer / Blu-ray RUS] bober100 Скачать
1 | 0
Зарубежные Мультфильмы (WEB-DL 720p, 1080p) [ 2.55 GB ] Тайна Мосли / Mosley [2019 мультфильм WEB-DL 720p] bober100 Скачать
1 | 0
Зарубежные Мультфильмы (WEB-DL 720p, 1080p) [ 3.59 GB ] Тайна Мосли / Mosley [2019 мультфильм WEB-DL 1080p] bober100 Скачать
5 | 0
Иностранные мультфильмы [ 1.46 GB ] Тайна Мосли / Mosley [2019 мультфильм BDRip] DUB [RUS Transfer / Blu-ray RUS] bober100 Скачать
2 | 0

28-11-2019 20:33  

Отключить всю рекламу на сайте


    Дорогой пользователь! Огромная просьба, поблагодарите релизера, оцените раздачу и оставьте свои комментарий, если Вы скачали Тайна Мосли через торрент бесплатно! Внесите свою лепту в развитие PiratBit!
    Комментировать посты могут только пользователи прошедшие не сложную регистрацию
    Показать сообщения:    

    Тайна Мосли через торрент
    Скачать бесплатно Тайна Мосли
    Тайна Мосли скачать торрент
    Тайна Мосли смотреть онлайн
    Cкачать фильм Тайна Мосли бесплатно
    Тайна Мосли скачать торрент в хорошем качестве
    Тайна Мосли смотреть онлайн бесплатно в хорошем качестве


    Вы не можете начинать темы
    Вы не можете отвечать на сообщения
    Вы не можете редактировать свои сообщения
    Вы не можете удалять свои сообщения
    Вы не можете голосовать в опросах
    Вы не можете прикреплять файлы к сообщениям
    Вы можете скачивать файлы