1 сезон

3 сезон

iTunes

1

iTunes

MVO

iTunes

13

1 сезон

RePack

30

Deluxe

pack

Лицензия

ВАЖНО

ИГРА 18+

pack

RePack

MK11

RePack

jed

RePack

fifa19

RePack

RDR2

RePack

NEED FOR SPEED™ PAYBACK

4 сезон

9 сезон

Бесстыжие 9 сезон

Все сериалы

все сериалы на PB.wtf

RePack

FAR CRY 5

Anonymous, добрый день, мы катастрофически не успеваем собрать деньги на оплату серверов, помогите нам пожалуйста 5,10,15р., для нас важна любая помощь . В качестве благодарности мы отключим Вам всю рекламу на сайте (укажите свой ник в строку Ваше имя)!

×
  
Magnet ссылка

Пробуждение / Сезон: 1 / Серии: 1-5 из 12 (Эдуард Парри) [2021, Драма, детектив, триллер, WEB-DL 1080p] piratbit.org

Пробуждение через торрент piratbit.org

Раздают: 3 [ 157 KB/s ] Качают: 1 [ 0 KB/s ]
Размер: 9.65 GB | Добавлен: 6 д. назад | Торрент скачан:6 раз
Скачать  

01-07-2021 03:50 Пробуждение Скачать торрент  

Пробуждение
Год выпуска: 2021
Страна: Россия
Студия: IVI Originals, Star Media
Жанр: Драма, детектив, триллер
Продолжительность: ~ 00:50:00 серия
Перевод: Не требуется
Субтитры: отсутствуют

Режиссер: Эдуард Парри



В ролях: Евгений Миронов, Наталия Вдовина, Михаил Шведов, Агриппина Стеклова, Руслан Герман, Александр Робак, Владимир Ильин, Александр Новин, Яна Сексте, Анастасия Стежко, Ирина Вербицкая, Никита Абдулов, Александра Лупашко, Валентина Ляпина, Олег Морозов, Ирина Вальц, Василий Мичков, Константин Константинов (II), Андрей Дерюгин, Зарина Мухитдинова, Андрей Сокольников, Денис Шаблий, Иван Чернов, Михаил Коновалов, Михаил Шульц, Евгений Казанцев, Антон Шпиньков, Лада Брик, Виктор Овсянников, Александр Коваленко (III), Олег Евтеев, Александр Савин (III), Сергей Маринычев, Сергей Бондаренко, Ярослав Гугнин, Ирина Фролова, Лия Гончарова, Андрей Романов (IV), Ольга Дегтярева, Роман Плопер, Сергей Карасевич, Валентин Терехов

Описание: Следователь Павел Фролов попадает в автомобильную аварию. После чего его жизнь оказывается разорвана на две параллельные реальности — в одной из них в катастрофе выжил его сын Кирилл, в другой — его жена Светлана. Каждое утро, проснувшись, Павел обнаруживает себя поочерёдно, то в реальности с сыном, то с женой. Обе реальности настолько убедительны, что в течение фильма Павел проживает как бы две жизни. В каждой из этих жизней он пытается узнать, кто или что стоит за аварией, чтобы попытаться соединить две реальности воедино. А заодно вернуть уважение сына и любовь жены, общению с которыми раньше часто предпочитал работу.

Качество: WEB-DL 1080p
Формат: MKV

Видео: MPEG-4 AVC, 1920x930, ~ 5120 Кбит/с, 0.115 bit/pixel, 25 Кадр/с
Аудио: 48.0 kHz, AC3 Dolby Digital, 2/0 (L,R) ch, ~ 192 kbps

Общее
Уникальный идентификатор : 242167708458716712865693868331320930766 (0xB62FCDDB5C544FE097411302532AF1CE)
Полное имя : D:\Probuzhdenie.2021.WEB-DL.(1080p).Getty\Probuzhdenie.e01.2021.WEB-DL.(1080p).Getty.mkv
Формат : Matroska
Версия формата : Version 4
Размер файла : 1,85 Гбайт
Продолжительность : 49 м. 46 с.
Общий поток : 5 309 Кбит/сек
Название фильма : Probuzhdenie.e01.2021.WEB-DL.(1080p).Getty
Дата кодирования : UTC 2021-06-30 21:39:28
Программа кодирования : mkvmerge v7.8.0 ('River Man') 32bit built on Mar 27 2015 16:18:02
Библиотека кодирования : libebml v1.3.1 + libmatroska v1.4.2

Видео
Идентификатор : 1
Формат : AVC
Формат/Информация : Advanced Video Codec
Профиль формата : High@L4
Настройки формата : CABAC / 4 Ref Frames
Параметр CABAC формата : Да
Параметр RefFrames формата : 4 кадра
Идентификатор кодека : V_MPEG4/ISO/AVC
Продолжительность : 49 м. 46 с.
Битрейт : 5 120 Кбит/сек
Ширина : 1 920 пикселей
Высота : 930 пикселей
Соотношение сторон : 2,065
Режим частоты кадров : Постоянный
Частота кадров : 25,000 кадров/сек
Цветовое пространство : YUV
Субдискретизация насыщенности : 4:2:0
Битовая глубина : 8 бит
Тип развёртки : Прогрессивная
Бит/(Пиксели*Кадры) : 0.115
Размер потока : 1,78 Гбайт (96%)
Библиотека кодирования : x264 core 152 r2854 e9a5903
Настройки программы : cabac=1 / ref=3 / deblock=1:0:0 / analyse=0x3:0x113 / me=hex / subme=7 / psy=1 / psy_rd=1.00:0.00 / mixed_ref=1 / me_range=16 / chroma_me=1 / trellis=1 / 8x8dct=1 / cqm=0 / deadzone=21,11 / fast_pskip=1 / chroma_qp_offset=-2 / threads=29 / lookahead_threads=4 / sliced_threads=0 / nr=0 / decimate=1 / interlaced=0 / bluray_compat=0 / constrained_intra=0 / bframes=6 / b_pyramid=2 / b_adapt=1 / b_bias=0 / direct=1 / weightb=1 / open_gop=0 / weightp=2 / keyint=50 / keyint_min=26 / scenecut=0 / intra_refresh=0 / rc_lookahead=40 / rc=2pass / mbtree=1 / bitrate=5120 / ratetol=1.0 / qcomp=0.60 / qpmin=0 / qpmax=69 / qpstep=4 / cplxblur=20.0 / qblur=0.5 / vbv_maxrate=7680 / vbv_bufsize=20480 / nal_hrd=none / filler=0 / ip_ratio=1.40 / aq=1:1.00
Default : Да
Forced : Нет

Аудио
Идентификатор : 2
Формат : AC-3
Формат/Информация : Audio Coding 3
Коммерческое название : Dolby Digital
Идентификатор кодека : A_AC3
Продолжительность : 49 м. 46 с.
Вид битрейта : Постоянный
Битрейт : 192 Кбит/сек
Каналы : 2 канала
Channel layout : L R
Частота : 48,0 КГц
Частота кадров : 31,250 кадров/сек (1536 SPF)
Метод сжатия : С потерями
Размер потока : 68,4 Мбайт (4%)
Service kind : Complete Main
Default : Да
Forced : Нет

Внимание! Раздача ведётся путём добавления новых серий; при каждом добавлении создаётся новый торрент. Чтобы начать докачку новой серии, пользователям необходимо сделать следующее:
(1) остановить скачивание,
(2) удалить старый торрент у себя из клиента (старые серии удалять не надо),
(3) скачать новый торрент и запустить его у себя в клиенте вместо старого, при этом указать клиенту путь в старую папку куда и должно происходить скачивание новых серий.

Ваш клиент при этом должен произвести хеширование (проверку) старой папки (если не производит сам - помогите ему сделать это), и будет докачивать только те серии которых у вас ещё нет. Старые серии при этом не удаляются, а продолжают раздаваться!

Eсли вы уже удалили старые серии, то предотвратить повторную закачку старых серий можно, отжав галочку в соответствующих местах при запуске нового торрента. По возможности, желательно не удалять старые серии как можно дольше чтобы релизёр не столько продолжал раздавать старые серии, а смог сконцентрироваться на новых.
piratbit.org



Скачать Пробуждение через торрент https://i115.fastpic.ru/big/2021/0701/c0/6518f211cbdc922b000079787ff274c0.jpg Скачать фильм Пробуждение через торрент бесплантно в хорошем качестве Описание: Следователь Павел Фролов попадает в автомобильную аварию. После чего его жизнь оказывается разорвана на две параллельные ... 10 10 5
Торрент: Зарегистрирован [2021-07-22 01:03] · скачан: 6 раз
Статус: √ проверено
Размер: 9.65 GB
Как cкачать? Как скачать Пробуждение через торрент | UTorrent

% Раздел Тема Автор DL S | L
Наши сериалы [ 3.26 GB ] Пробуждение / Сезон: 1 / Серии: 1-5 из 12 [2021 WEB-DLRip-AVC] bober100 Скачать
9 | 1
Наши сериалы [ 2.93 GB ] Пробуждение / Сезон: 1 / Серии: 1-5 из 12 [2021 WEB-DLRip] bober100 Скачать
2 | 0
Наши сериалы [ 5.01 GB ] Пробуждение / Сезон: 1 / Серии: 1-5 из 12 [2021 WEB-DL 720p] bober100 Скачать
4 | 0

28-11-2019 20:33  

Отключить всю рекламу на сайте

    Дорогой пользователь! Огромная просьба, поблагодарите релизера, оцените раздачу и оставьте свои комментарий, если Вы скачали Пробуждение через торрент бесплатно! Внесите свою лепту в развитие PiratBit!
    Комментировать посты могут только пользователи прошедшие не сложную регистрацию
    Показать сообщения:    

    Пробуждение через торрент
    Скачать бесплатно Пробуждение
    Пробуждение скачать торрент
    Пробуждение смотреть онлайн
    Cкачать фильм Пробуждение бесплатно
    Пробуждение скачать торрент в хорошем качестве
    Пробуждение смотреть онлайн бесплатно в хорошем качестве


    Вы не можете начинать темы
    Вы не можете отвечать на сообщения
    Вы не можете редактировать свои сообщения
    Вы не можете удалять свои сообщения
    Вы не можете голосовать в опросах
    Вы не можете прикреплять файлы к сообщениям
    Вы можете скачивать файлы