1 сезон

iTunes

iTunes

1

Line

MVO

iTunes

13

1 сезон

RePack

30

Deluxe

pack

Лицензия

ВАЖНО

ИГРА 18+

pack

RePack

MK11

RePack

jed

RePack

fifa19

RePack

RDR2

RePack

NEED FOR SPEED™ PAYBACK

4 сезон

9 сезон

Бесстыжие 9 сезон

Все сериалы

все сериалы на PB.wtf

RePack

FAR CRY 5

Anonymous, доброй ночи, мы катастрофически не успеваем собрать деньги на оплату серверов, помогите нам пожалуйста 5,10,15р., для нас важна любая помощь . В качестве благодарности мы отключим Вам всю рекламу на сайте (укажите свой ник в строку Ваше имя)!

×
  
Magnet ссылка

Пробуждение / Сезон: 1 / Серии: 1-6 из 12 (Эдуард Парри) [2021, Драма, детектив, триллер, WEB-DLRip] piratbit.org

Пробуждение через торрент piratbit.org

Раздают: 3 [ 73 KB/s ] Качают: 1 [ 0 KB/s ]
Размер: 3.52 GB | Добавлен: 5 д. назад | Торрент скачан:13 раз
Скачать  

01-07-2021 03:57 Пробуждение Скачать торрент  

Пробуждение
Год выпуска: 2021
Страна: Россия
Студия: IVI Originals, Star Media
Жанр: Драма, детектив, триллер
Продолжительность: ~ 00:50:00 серия
Перевод: Не требуется
Субтитры: отсутствуют

Режиссер: Эдуард Парри



В ролях: Евгений Миронов, Наталия Вдовина, Михаил Шведов, Агриппина Стеклова, Руслан Герман, Александр Робак, Владимир Ильин, Александр Новин, Яна Сексте, Анастасия Стежко, Ирина Вербицкая, Никита Абдулов, Александра Лупашко, Валентина Ляпина, Олег Морозов, Ирина Вальц, Василий Мичков, Константин Константинов (II), Андрей Дерюгин, Зарина Мухитдинова, Андрей Сокольников, Денис Шаблий, Иван Чернов, Михаил Коновалов, Михаил Шульц, Евгений Казанцев, Антон Шпиньков, Лада Брик, Виктор Овсянников, Александр Коваленко (III), Олег Евтеев, Александр Савин (III), Сергей Маринычев, Сергей Бондаренко, Ярослав Гугнин, Ирина Фролова, Лия Гончарова, Андрей Романов (IV), Ольга Дегтярева, Роман Плопер, Сергей Карасевич, Валентин Терехов

Описание: Следователь Павел Фролов попадает в автомобильную аварию. После чего его жизнь оказывается разорвана на две параллельные реальности — в одной из них в катастрофе выжил его сын Кирилл, в другой — его жена Светлана. Каждое утро, проснувшись, Павел обнаруживает себя поочерёдно, то в реальности с сыном, то с женой. Обе реальности настолько убедительны, что в течение фильма Павел проживает как бы две жизни. В каждой из этих жизней он пытается узнать, кто или что стоит за аварией, чтобы попытаться соединить две реальности воедино. А заодно вернуть уважение сына и любовь жены, общению с которыми раньше часто предпочитал работу.

Качество: WEB-DLRip
Формат: AVI

Видео: XviD, 720x344, ~ 1500 Кбит/с, 0.240 bit/pixel, 25 Кадр/с
Аудио: 48.0 kHz, AC3 Dolby Digital, 2/0 (L,R) ch, ~ 192 kbps
скриншот  скриншот  скриншот  скриншот  

Общее
Полное имя : D:\Probuzhdenie.2021.WEB-DLRip.25Kuzmich\Probuzhdenie.e01.WEB-DLRip.25Kuzmich.avi
Формат : AVI
Формат/Информация : Audio Video Interleave
Размер файла : 600 Мбайт
Продолжительность : 49 м. 46 с.
Общий поток : 1 686 Кбит/сек
Программа кодирования : VirtualDubMod 1.5.10.3 | www.virtualdub-fr.org || (build 2550/release)
Библиотека кодирования : VirtualDubMod build 2550/release

Видео
Идентификатор : 0
Формат : MPEG-4 Visual
Профиль формата : Advanced Simple@L5
Настройки формата : BVOP1
Параметр BVOP формата : 1
Параметр QPel формата : Нет
Параметр GMC формата : Без точки перехода
Параметр матрицы формата : Default (MPEG)
Идентификатор кодека : XVID
Идентификатор кодека/Подсказка : XviD
Продолжительность : 49 м. 46 с.
Битрейт : 1 484 Кбит/сек
Ширина : 720 пикселей
Высота : 344 пикселя
Соотношение сторон : 2,093
Частота кадров : 25,000 кадров/сек
Цветовое пространство : YUV
Субдискретизация насыщенности : 4:2:0
Битовая глубина : 8 бит
Тип развёртки : Прогрессивная
Метод сжатия : С потерями
Бит/(Пиксели*Кадры) : 0.240
Размер потока : 528 Мбайт (88%)
Библиотека кодирования : XviD 73

Аудио
Идентификатор : 1
Формат : AC-3
Формат/Информация : Audio Coding 3
Коммерческое название : Dolby Digital
Идентификатор кодека : 2000
Продолжительность : 49 м. 46 с.
Вид битрейта : Постоянный
Битрейт : 192 Кбит/сек
Каналы : 2 канала
Channel layout : L R
Частота : 48,0 КГц
Частота кадров : 31,250 кадров/сек (1536 SPF)
Метод сжатия : С потерями
Размер потока : 68,4 Мбайт (11%)
Выравнивание : Разделение по промежуткам
Продолжительность промежутка : 40 мс. (1,00 видеокадр)
Время предзагрузки промежутка : 500 мс.
Service kind : Complete Main

Внимание! Раздача ведётся путём добавления новых серий; при каждом добавлении создаётся новый торрент. Чтобы начать докачку новой серии, пользователям необходимо сделать следующее:
(1) остановить скачивание,
(2) удалить старый торрент у себя из клиента (старые серии удалять не надо),
(3) скачать новый торрент и запустить его у себя в клиенте вместо старого, при этом указать клиенту путь в старую папку куда и должно происходить скачивание новых серий.

Ваш клиент при этом должен произвести хеширование (проверку) старой папки (если не производит сам - помогите ему сделать это), и будет докачивать только те серии которых у вас ещё нет. Старые серии при этом не удаляются, а продолжают раздаваться!

Eсли вы уже удалили старые серии, то предотвратить повторную закачку старых серий можно, отжав галочку в соответствующих местах при запуске нового торрента. По возможности, желательно не удалять старые серии как можно дольше чтобы релизёр не столько продолжал раздавать старые серии, а смог сконцентрироваться на новых.
piratbit.org



Скачать Пробуждение через торрент https://i115.fastpic.ru/big/2021/0701/c0/6518f211cbdc922b000079787ff274c0.jpg Скачать фильм Пробуждение через торрент бесплантно в хорошем качестве Описание: Следователь Павел Фролов попадает в автомобильную аварию. После чего его жизнь оказывается разорвана на две параллельные ... 10 10 6
Торрент: Зарегистрирован [2021-07-29 02:45] · скачан: 13 раз
Статус: √ проверено
Размер: 3.52 GB
Как cкачать? Как скачать Пробуждение через торрент | UTorrent

% Раздел Тема Автор DL S | L
Наши сериалы [ 3.89 GB ] Пробуждение / Сезон: 1 / Серии: 1-6 из 12 [2021 WEB-DLRip-AVC] bober100 Скачать
5 | 4
Наши сериалы [ 11.5 GB ] Пробуждение / Сезон: 1 / Серии: 1-6 из 12 [2021 WEB-DL 1080p] bober100 Скачать
1 | 0

28-11-2019 20:33  

Отключить всю рекламу на сайте

    Дорогой пользователь! Огромная просьба, поблагодарите релизера, оцените раздачу и оставьте свои комментарий, если Вы скачали Пробуждение через торрент бесплатно! Внесите свою лепту в развитие PiratBit!
    Комментировать посты могут только пользователи прошедшие не сложную регистрацию
    Показать сообщения:    

    Пробуждение через торрент
    Скачать бесплатно Пробуждение
    Пробуждение скачать торрент
    Пробуждение смотреть онлайн
    Cкачать фильм Пробуждение бесплатно
    Пробуждение скачать торрент в хорошем качестве
    Пробуждение смотреть онлайн бесплатно в хорошем качестве


    Вы не можете начинать темы
    Вы не можете отвечать на сообщения
    Вы не можете редактировать свои сообщения
    Вы не можете удалять свои сообщения
    Вы не можете голосовать в опросах
    Вы не можете прикреплять файлы к сообщениям
    Вы можете скачивать файлы