>

5.6

iTunes

6.1

MVO

5.7

MVO

1

7.4

1 сезон

6.8

iTunes

7.2

1 сезон

13

6.7

1 сезон

8.3

RePack

30

Deluxe

pack

9.9

Лицензия

ВАЖНО

ИГРА 18+

pack

7.3

RePack

MK11

7.7

RePack

jed

7.8

RePack

fifa19

8.5

RePack

RDR2

RePack

NEED FOR SPEED™ PAYBACK

4 сезон

9 сезон

Бесстыжие 9 сезон

Все сериалы

все сериалы на PB.wtf

RePack

FAR CRY 5

Anonymous, добрый вечер, мы катастрофически не успеваем собрать деньги на оплату серверов, помогите нам пожалуйста 5,10,15р., для нас важна любая помощь . В качестве благодарности мы отключим Вам всю рекламу на сайте (укажите свой ник в строку Ваше имя)!

×
  
Magnet ссылка

Джентльмен из Кокоди / Le gentleman de Cocody (Кристиан-Жак) [1965, приключения, BDRip-HEVC 1080p] MVO + DVO piratbit.org

Джентльмен из Кокоди через торрент piratbit.org

Раздают: 1 [ 0 KB/s ]
Размер: 6.99 GB | Добавлен: 2 мес. 15 д. назад | Торрент скачан:10 раз
Смотреть онлайн Джентльмен из Кокоди | Скачать    Ребята, помогите собрать деньги на оплату серверов!!!

04-07-2021 13:04 Джентльмен из Кокоди Скачать торрент  

Название: Джентльмен из Кокоди
Оригинальное название: Le gentleman de Cocody
Год производства: 1965
Жанр: приключения
Режиссер: Кристиан-Жак
В ролях: Жан Маре, Лизелотте Пульвер, Филипп Клэй, Нэнси Холлоуэй, Мария Грация Буччелла, Жак Морель, Робер Дальбан, Джил Деламар, Мишель Делакруа, Joseph Diomandé

О фильме: Французский дипломат в Африке случайно становится свидетелем разборки двух преступных группировок, охотящихся за бриллиантами. Полиция, обеспокоенная серией загадочных убийств, находит на жертвах следы когтей пантеры. Счастливчику и ловеласу предстоит путешествие по африканской саванне, погони на всевозможных видах транспорта, опасности в логове врага, перестрелки и долгожданный поцелуй в финале...



Страна: Франция, Италия
Студия: Euro-France Films, Gaumont International, Produzioni Cinematografiche Mediterranee (PCM)
Продолжительность: 01:24:14
Перевод: многоголосый профессиональный, двухголосый профессиональный

Качество: BDRip-HEVC 1080p
Кодек: HEVC (x265)
Видео: 1920x816 (2.35:1), 10,9 Мбит/сек, HEVC (Main10@L.4.1@High) 10 бит
Звук:
Аудио1: AC3, 2 ch, 192 Kbps - Русский, Многоголосый (ТК "Россия")
Аудио2: AC3, 2 ch, 192 Kbps - Русский, Двухголосый (Фильм Экспорт)
Аудио3: AC3, 2 ch, 640 Kbps - French, Original
Субтитры: отсутствуют
Навигация по главам: Есть

x265 [info]: frame I: 507, Avg QP:17.48 kb/s: 27276.07
x265 [info]: frame P: 30036, Avg QP:18.94 kb/s: 20233.05
x265 [info]: frame B: 90764, Avg QP:20.92 kb/s: 7652.11
x265 [info]: Weighted P-Frames: Y:6.7% UV:5.7%
x265 [info]: Weighted B-Frames: Y:4.1% UV:3.1%
x265 [info]: consecutive B-frames: 3.5% 5.5% 6.8% 68.4% 6.6% 8.6% 0.2% 0.2% 0.0% 0.1%
x265 [info]: encoded 121307 frames in 97190.77s (1.25 fps), 10849.21 kb/s, Avg QP:20.42
Общее
Уникальный идентификатор : 221123609659839048953739883882216991268 (0xA65ADBAE1CAA4085FB7214D086D8AA24)
Полное имя : \\.\Джентльмен.из.Кокоди.Le.gentleman.de.Cocody.1965.BDRip-HEVC.1080p.mkv
Формат : Matroska
Версия формата : Version 4
Размер файла : 6,99 Гбайт
Продолжительность : 1 ч. 24 м.
Общий поток : 11,9 Мбит/сек
Название фильма : Джентльмен.из.Кокоди.Le.gentleman.de.Cocody.1965.BDRip-HEVC.1080p
Дата кодирования : UTC 2021-06-27 17:44:57
Программа кодирования : mkvmerge v58.0.0 ('Supper's Ready') 64-bit
Библиотека кодирования : libebml v1.4.2 + libmatroska v1.6.4

Видео
Идентификатор : 1
Формат : HEVC
Формат/Информация : High Efficiency Video Coding
Профиль формата : Main 10@L4.1@High
Идентификатор кодека : V_MPEGH/ISO/HEVC
Продолжительность : 1 ч. 24 м.
Битрейт : 10,9 Мбит/сек
Ширина : 1 920 пикселей
Высота : 816 пикселей
Соотношение сторон : 2,35:1
Режим частоты кадров : Постоянный
Частота кадров : 24,000 кадра/сек
Цветовое пространство : YUV
Субдискретизация насыщенности : 4:2:0
Битовая глубина : 10 бит
Бит/(Пиксели*Кадры) : 0.289
Размер потока : 6,38 Гбайт (91%)
Заголовок : Le gentleman de Cocody / Rip by OldGamer
Библиотека кодирования : x265 3.5+9-bf91444e0:[Windows][GCC 10.2.1][64 bit] 10bit
Настройки программы : cpuid=1111039 / frame-threads=3 / numa-pools=8 / wpp / no-pmode / no-pme / no-psnr / no-ssim / log-level=2 / input-csp=1 / input-res=1920x816 / interlace=0 / total-frames=121307 / level-idc=41 / high-tier=1 / uhd-bd=0 / ref=5 / no-allow-non-conformance / no-repeat-headers / annexb / no-aud / no-eob / no-eos / no-hrd / info / hash=0 / no-temporal-layers / open-gop / min-keyint=23 / keyint=240 / gop-lookahead=0 / bframes=9 / b-adapt=2 / b-pyramid / bframe-bias=0 / rc-lookahead=40 / lookahead-slices=0 / scenecut=40 / hist-scenecut=0 / radl=0 / no-splice / no-intra-refresh / ctu=32 / min-cu-size=8 / rect / amp / max-tu-size=32 / tu-inter-depth=4 / tu-intra-depth=4 / limit-tu=1 / rdoq-level=2 / dynamic-rd=0.00 / no-ssim-rd / signhide / no-tskip / nr-intra=0 / nr-inter=0 / no-constrained-intra / no-strong-intra-smoothing / max-merge=5 / limit-refs=3 / no-limit-modes / me=3 / subme=7 / merange=57 / temporal-mvp / no-frame-dup / no-hme / weightp / weightb / no-analyze-src-pics / deblock=-3:-3 / no-sao / no-sao-non-deblock / rd=6 / selective-sao=0 / no-early-skip / rskip / no-fast-intra / no-tskip-fast / no-cu-lossless / b-intra / no-splitrd-skip / rdpenalty=0 / psy-rd=2.00 / psy-rdoq=1.00 / no-rd-refine / no-lossless / cbqpoffs=0 / crqpoffs=0 / rc=crf / crf=18.2 / qcomp=0.60 / qpstep=4 / stats-write=0 / stats-read=0 / vbv-maxrate=50000 / vbv-bufsize=50000 / vbv-init=0.9 / min-vbv-fullness=50.0 / max-vbv-fullness=80.0 / crf-max=0.0 / crf-min=0.0 / ipratio=1.40 / pbratio=1.30 / aq-mode=1 / aq-strength=1.00 / no-cutree / zone-count=1 / zones: / start-frame=120982 / end-frame=121307 / qp=36 / no-strict-cbr / qg-size=32 / no-rc-grain / qpmax=69 / qpmin=0 / no-const-vbv / sar=1 / overscan=0 / videoformat=5 / range=0 / colorprim=2 / transfer=2 / colormatrix=2 / chromaloc=0 / display-window=0 / cll=0,0 / min-luma=0 / max-luma=1023 / log2-max-poc-lsb=8 / vui-timing-info / vui-hrd-info / slices=1 / no-opt-qp-pps / no-opt-ref-list-length-pps / no-multi-pass-opt-rps / scenecut-bias=0.00 / hist-threshold=0.03 / no-opt-cu-delta-qp / no-aq-motion / no-hdr10 / no-hdr10-opt / no-dhdr10-opt / no-idr-recovery-sei / analysis-reuse-level=0 / analysis-save-reuse-level=0 / analysis-load-reuse-level=0 / scale-factor=0 / refine-intra=0 / refine-inter=0 / refine-mv=1 / refine-ctu-distortion=0 / no-limit-sao / ctu-info=0 / no-lowpass-dct / refine-analysis-type=0 / copy-pic=1 / max-ausize-factor=1.0 / no-dynamic-refine / no-single-sei / no-hevc-aq / no-svt / no-field / qp-adaptation-range=1.00 / scenecut-aware-qp=0conformance-window-offsets / right=0 / bottom=0 / decoder-max-rate=0 / no-vbv-live-multi-pass
Язык : French
Default : Да
Forced : Нет

Аудио #1
Идентификатор : 2
ID in the original source medium : 4352 (0x1100)
Формат : AC-3
Формат/Информация : Audio Coding 3
Коммерческое название : Dolby Digital
Идентификатор кодека : A_AC3
Продолжительность : 1 ч. 24 м.
Вид битрейта : Постоянный
Битрейт : 192 Кбит/сек
Каналы : 2 канала
Channel layout : L R
Частота : 48,0 КГц
Частота кадров : 31,250 кадров/сек (1536 SPF)
Метод сжатия : С потерями
Размер потока : 116 Мбайт (2%)
Заголовок : MVO (ТК "Россия")
Язык : Russian
Service kind : Complete Main
Default : Да
Forced : Нет
Носитель оригинала : Blu-ray

Аудио #2
Идентификатор : 3
ID in the original source medium : 4353 (0x1101)
Формат : AC-3
Формат/Информация : Audio Coding 3
Коммерческое название : Dolby Digital
Идентификатор кодека : A_AC3
Продолжительность : 1 ч. 24 м.
Вид битрейта : Постоянный
Битрейт : 192 Кбит/сек
Каналы : 2 канала
Channel layout : L R
Частота : 48,0 КГц
Частота кадров : 31,250 кадров/сек (1536 SPF)
Метод сжатия : С потерями
Размер потока : 116 Мбайт (2%)
Заголовок : DVO (Фильм Экспорт)
Язык : Russian
Service kind : Complete Main
Default : Нет
Forced : Нет
Носитель оригинала : Blu-ray

Аудио #3
Идентификатор : 4
Формат : AC-3
Формат/Информация : Audio Coding 3
Коммерческое название : Dolby Digital
Идентификатор кодека : A_AC3
Продолжительность : 1 ч. 24 м.
Вид битрейта : Постоянный
Битрейт : 640 Кбит/сек
Каналы : 2 канала
Channel layout : L R
Частота : 48,0 КГц
Частота кадров : 31,250 кадров/сек (1536 SPF)
Метод сжатия : С потерями
Размер потока : 386 Мбайт (5%)
Язык : French
Service kind : Complete Main
Default : Нет
Forced : Нет

Меню
00:00:00.000 : Chapter 01
00:08:42.916 : Chapter 02
00:14:23.333 : Chapter 03
00:20:45.458 : Chapter 04
00:28:44.583 : Chapter 05
00:35:25.125 : Chapter 06
00:42:10.083 : Chapter 07
00:47:21.166 : Chapter 08
00:54:56.583 : Chapter 09
01:04:52.333 : Chapter 10
01:09:30.958 : Chapter 11
01:17:13.250 : Chapter 12
Релиз от: OldGamer piratbit.org



Скачать Джентльмен из Кокоди через торрент https://b.radikal.ru/b08/2107/5d/0e04572d50a8.jpg Скачать, смотреть онлайн Джентльмен из Кокоди бесплантно в хорошем качестве О фильме: Французский дипломат в Африке случайно становится свидетелем разборки двух преступных группировок, охотящихся за бриллиантами. ... 10 10 2
Торрент: Зарегистрирован [2021-07-04 13:04] · скачан: 10 раз
Статус: √ проверено
Размер: 6.99 GB
Как cкачать? Как скачать Джентльмен из Кокоди через торрент | UTorrent

28-11-2019 20:33  

Отключить всю рекламу на сайте

    Дорогой пользователь! Огромная просьба, поблагодарите релизера, оцените раздачу и оставьте свои комментарий, если Вы скачали Джентльмен из Кокоди через торрент бесплатно!
    Комментировать посты могут только пользователи прошедшие не сложную регистрацию
    Показать сообщения:    

    Джентльмен из Кокоди через торрент
    Скачать бесплатно Джентльмен из Кокоди
    Джентльмен из Кокоди скачать торрент
    Джентльмен из Кокоди смотреть онлайн
    Cкачать фильм Джентльмен из Кокоди бесплатно
    Джентльмен из Кокоди скачать торрент в хорошем качестве
    Джентльмен из Кокоди смотреть онлайн бесплатно в хорошем качестве


    Вы не можете начинать темы
    Вы не можете отвечать на сообщения
    Вы не можете редактировать свои сообщения
    Вы не можете удалять свои сообщения
    Вы не можете голосовать в опросах
    Вы не можете прикреплять файлы к сообщениям
    Вы можете скачивать файлы