Достать ножи: Стеклянная луковица

MVO

Добыча

Дубляж

Уэнсдэй

1 сезон

Тор

Дубляж

13 клиническая

1 сезон

Жестокая ночь

MVO

Одни из нас

1 сезон

Deluxe

pack

Рекомендуем

30

Пиратка

ВАЖНО

ВАЖНО

Ghostwire

Пиратка

jed

RePack

nioh2

RePack

RDR2

RePack

NEED FOR SPEED™ PAYBACK

RePack

скачать торрент

Кинопоиск HD

Острые козырьки 6 сезон

6 сезон

FAR CRY 6

RePack

скачать торрент

Лицензия

скачать торрент

MVO

1

1 сезон

скачать торрент

1 сезон

скачать торрент

Лицензия

  

Мортал Комбат / Mortal Kombat (Саймон Маккуойд) [2021, Боевик, фэнтези, фантастика, UHD BDRemux 2160p] Дубляж [Пифагор] +MVO (rus, ukr) [HDRezka] +3xAVO

Мортал Комбат через торрент piratbit.org

Размер: 51.53 GB | Добавлен: 1 год 6 мес. назад | Торрент скачан:222 раза
Смотреть онлайн | Скачать | Поддержите нас   

06-07-2021 10:33 Мортал Комбат Скачать торрент  

Мортал Комбат | Mortal Kombat
Год выпуска: 2021
Страна: Австралия, США
Студия: New Line Cinema, NetherRealm Studios, Atomic Monster
Жанр: Боевик, фэнтези, фантастика
Продолжительность: 01:50:03
Перевод(ы):
#1: Дублированный | Пифагор
#2: Профессиональный многоголосый | HDRezka
#3: Авторский | Ю. Сербин
#4: Авторский | В. Назаров
#5: Авторский | М. Яроцкий
Субтитры: Русские (Forced, 4 x full), украинские (Forced), английские

Режиссер: Саймон Маккуойд

rating

В ролях: Льюис Тан, Джо Таслим, Джессика МакНэми, Джош Лоусон, Мехкад Брукс, Матильда Кимбер, Лора Брент, Таданобу Асано, Хироюки Санада, Чинь Хань

Описание: Боец смешанных единоборств Коул Янг не раз соглашался проиграть за деньги. Он не знает о своем наследии и почему император Внешнего Мира Шан Цзун посылает своего лучшего воина, могущественного криомансера Саб-Зиро, на охоту за Коулом. Янг боится за безопасность своей семьи, и майор спецназа Джакс, обладатель такой же отметки в виде дракона, как и у Коула, советует ему отправиться на поиски Сони Блейд. Вскоре он оказывается в храме Лорда Рейдена, Старшего Бога и защитника Земного Царства, который дает убежище тем, кто носит метку. Здесь Коул тренируется с опытными воинами Лю Каном, Кун Лао и наемником-изгоем Кано, готовясь вместе с величайшими чемпионами Земли противостоять врагам из Внешнего Мира в битве за вселенную. Но сможет ли Коул приложить все усилия и раскрыть в себе аркану — могущественную силу его души, чтобы не только спасти свою семью, но и остановить Внешний Мир раз и навсегда?

Качество: UHD BDRemux 2160p
Формат: MKV

Видео: 3840x2160 at 23.976 fps, MPEG-H HEVC HDR Video, ~ 59700 kbps avg
Аудио #01: 48 kHz, AC3, 5.1, 384 Kbps | Дублированный | Пифагор | RUS |
Аудио #02: 48 kHz, AC3, 5.1, 640 Kbps | Профессиональный многоголосый | HDRezka | RUS |
Аудио #03: 48 kHz, AC3, 5.1, 640 Kbps | Авторский | Ю. Сербин | RUS |
Аудио #04: 48 kHz, AC3, 5.1, 640 Kbps | Авторский | В. Назаров | RUS |
Аудио #05: 48 kHz, AC3, 5.1, 640 Kbps | Авторский | М. Яроцкий | RUS |
Аудио #06: 48 kHz, AC3, 5.1, 384 Kbps | Профессиональный многоголосый | HDRezka | UKR |
Аудио #07: 48 kHz, TrueHD, 7.1, 3449 Kbps | Оригинал | ENG |
Аудио #08: 48 kHz, AC3, 5.1, 448 Kbps | Оригинал | ENG |
скриншот  скриншот  скриншот  скриншот  скриншот  

General
Unique ID : 209852913286311998627188366507440597322 (0x9DE033723680F57D8EA6B43C103FE94A)
Complete name : F:VideoMortal.Kombat.2021.D.MVO.AVO.BDREMUX.2160p.HDR.seleZen.mkv
Format : Matroska
Format version : Version 4
File size : 51.5 GiB
Duration : 1 h 50 min
Overall bit rate mode : Variable
Overall bit rate : 67.0 Mb/s
Movie name : Mortal Kombat 2021 from seleZen
Encoded date : UTC 2021-07-05 17:37:25
Writing application : mkvmerge v55.0.0 ('Waiting For Space') 64-bit
Writing library : libebml v1.4.2 + libmatroska v1.6.4

Video
ID : 1
Format : HEVC
Format/Info : High Efficiency Video Coding
Format profile : Main 10@L5.1@High
HDR format : SMPTE ST 2086, HDR10 compatible
Codec ID : V_MPEGH/ISO/HEVC
Duration : 1 h 50 min
Bit rate : 59.7 Mb/s
Width : 3 840 pixels
Height : 2 160 pixels
Display aspect ratio : 16:9
Frame rate mode : Constant
Frame rate : 23.976 (24000/1001) FPS
Color space : YUV
Chroma subsampling : 4:2:0 (Type 2)
Bit depth : 10 bits
Bits/(Pixel*Frame) : 0.300
Stream size : 45.9 GiB (89%)
Writing library : ATEME Titan File 3.9.6 (4.9.6.2)
Language : English
Default : Yes
Forced : No
Color range : Limited
Color primaries : BT.2020
Transfer characteristics : PQ
Matrix coefficients : BT.2020 non-constant
Mastering display color pri : Display P3
Mastering display luminance : min: 0.0001 cd/m2, max: 1000 cd/m2
Maximum Content Light Level : 825 cd/m2
Maximum Frame-Average Light : 118 cd/m2

Audio #1
ID : 2
Format : AC-3
Format/Info : Audio Coding 3
Commercial name : Dolby Digital
Codec ID : A_AC3
Duration : 1 h 50 min
Bit rate mode : Constant
Bit rate : 384 kb/s
Channel(s) : 6 channels
Channel layout : L R C LFE Ls Rs
Sampling rate : 48.0 kHz
Frame rate : 31.250 FPS (1536 SPF)
Compression mode : Lossy
Stream size : 302 MiB (1%)
Title : Дубляж
Language : Russian
Service kind : Complete Main
Default : Yes
Forced : Yes

Audio #2
ID : 3
Format : AC-3
Format/Info : Audio Coding 3
Commercial name : Dolby Digital
Codec ID : A_AC3
Duration : 1 h 50 min
Bit rate mode : Constant
Bit rate : 640 kb/s
Channel(s) : 6 channels
Channel layout : L R C LFE Ls Rs
Sampling rate : 48.0 kHz
Frame rate : 31.250 FPS (1536 SPF)
Compression mode : Lossy
Stream size : 504 MiB (1%)
Title : MVO [HDRezka]
Language : Russian
Service kind : Complete Main
Default : No
Forced : No

Audio #3
ID : 4
Format : AC-3
Format/Info : Audio Coding 3
Commercial name : Dolby Digital
Codec ID : A_AC3
Duration : 1 h 50 min
Bit rate mode : Constant
Bit rate : 640 kb/s
Channel(s) : 6 channels
Channel layout : L R C LFE Ls Rs
Sampling rate : 48.0 kHz
Frame rate : 31.250 FPS (1536 SPF)
Compression mode : Lossy
Stream size : 504 MiB (1%)
Title : AVO [Serbin]
Language : Russian
Service kind : Complete Main
Default : No
Forced : No

Audio #4
ID : 5
Format : AC-3
Format/Info : Audio Coding 3
Commercial name : Dolby Digital
Codec ID : A_AC3
Duration : 1 h 50 min
Bit rate mode : Constant
Bit rate : 640 kb/s
Channel(s) : 6 channels
Channel layout : L R C LFE Ls Rs
Sampling rate : 48.0 kHz
Frame rate : 31.250 FPS (1536 SPF)
Compression mode : Lossy
Stream size : 504 MiB (1%)
Title : AVO [Nazarov]
Language : Russian
Service kind : Complete Main
Default : No
Forced : No

Audio #5
ID : 6
Format : AC-3
Format/Info : Audio Coding 3
Commercial name : Dolby Digital
Codec ID : A_AC3
Duration : 1 h 50 min
Bit rate mode : Constant
Bit rate : 640 kb/s
Channel(s) : 6 channels
Channel layout : L R C LFE Ls Rs
Sampling rate : 48.0 kHz
Frame rate : 31.250 FPS (1536 SPF)
Compression mode : Lossy
Stream size : 504 MiB (1%)
Title : AVO [kyberpunk]
Language : Russian
Service kind : Complete Main
Default : No
Forced : No

Audio #6
ID : 7
Format : AC-3
Format/Info : Audio Coding 3
Commercial name : Dolby Digital
Codec ID : A_AC3
Duration : 1 h 50 min
Bit rate mode : Constant
Bit rate : 384 kb/s
Channel(s) : 6 channels
Channel layout : L R C LFE Ls Rs
Sampling rate : 48.0 kHz
Frame rate : 31.250 FPS (1536 SPF)
Compression mode : Lossy
Stream size : 302 MiB (1%)
Title : MVO [HDRezka]
Language : Ukrainian
Service kind : Complete Main
Default : No
Forced : No

Audio #7
ID : 8
Format : MLP FBA 16-ch
Format/Info : Meridian Lossless Packing FBA with 16-channel presentation
Commercial name : Dolby TrueHD with Dolby Atmos
Codec ID : A_TRUEHD
Duration : 1 h 50 min
Bit rate mode : Variable
Bit rate : 3 449 kb/s
Maximum bit rate : 5 781 kb/s
Channel(s) : 8 channels
Channel layout : L R C LFE Ls Rs Lb Rb
Sampling rate : 48.0 kHz
Frame rate : 1 200.000 FPS (40 SPF)
Compression mode : Lossless
Stream size : 2.65 GiB (5%)
Title : Original
Language : English
Default : No
Forced : No
Number of dynamic objects : 11
Bed channel count : 1 channel
Bed channel configuration : LFE

Audio #8
ID : 9
Format : AC-3
Format/Info : Audio Coding 3
Commercial name : Dolby Digital
Format settings : Dolby Surround EX
Codec ID : A_AC3
Duration : 1 h 50 min
Bit rate mode : Constant
Bit rate : 448 kb/s
Channel(s) : 6 channels
Channel layout : L R C LFE Ls Rs
Sampling rate : 48.0 kHz
Frame rate : 31.250 FPS (1536 SPF)
Compression mode : Lossy
Stream size : 353 MiB (1%)
Language : English
Service kind : Complete Main
Default : No
Forced : No

Text #1
ID : 10
Format : UTF-8
Codec ID : S_TEXT/UTF8
Codec ID/Info : UTF-8 Plain Text
Duration : 1 h 38 min
Bit rate : 3 b/s
Count of elements : 58
Stream size : 2.21 KiB (0%)
Title : Forced
Language : Russian
Default : Yes
Forced : Yes

Text #2
ID : 11
Format : UTF-8
Codec ID : S_TEXT/UTF8
Codec ID/Info : UTF-8 Plain Text
Duration : 1 h 37 min
Bit rate : 63 b/s
Count of elements : 970
Stream size : 45.5 KiB (0%)
Title : Full
Language : Russian
Default : No
Forced : No

Text #3
ID : 12
Format : UTF-8
Codec ID : S_TEXT/UTF8
Codec ID/Info : UTF-8 Plain Text
Duration : 1 h 47 min
Bit rate : 53 b/s
Count of elements : 989
Stream size : 42.0 KiB (0%)
Title : Full [PhysKids]
Language : Russian
Default : No
Forced : No

Text #4
ID : 13
Format : UTF-8
Codec ID : S_TEXT/UTF8
Codec ID/Info : UTF-8 Plain Text
Duration : 1 h 37 min
Bit rate : 55 b/s
Count of elements : 981
Stream size : 40.0 KiB (0%)
Title : Full [Mertzan]
Language : Russian
Default : No
Forced : No

Text #5
ID : 14
Format : UTF-8
Codec ID : S_TEXT/UTF8
Codec ID/Info : UTF-8 Plain Text
Duration : 1 h 37 min
Bit rate : 57 b/s
Count of elements : 981
Stream size : 41.1 KiB (0%)
Title : Full [Meninsub]
Language : Russian
Default : No
Forced : No

Text #6
ID : 15
Format : UTF-8
Codec ID : S_TEXT/UTF8
Codec ID/Info : UTF-8 Plain Text
Duration : 1 h 37 min
Bit rate : 3 b/s
Count of elements : 51
Stream size : 2.17 KiB (0%)
Title : Forced
Language : Ukrainian
Default : No
Forced : No

Text #7
ID : 16
Format : UTF-8
Codec ID : S_TEXT/UTF8
Codec ID/Info : UTF-8 Plain Text
Duration : 1 h 25 min
Bit rate : 41 b/s
Count of elements : 947
Stream size : 25.8 KiB (0%)
Title : Full
Language : English
Default : No
Forced : No

Text #8
ID : 17
Format : UTF-8
Codec ID : S_TEXT/UTF8
Codec ID/Info : UTF-8 Plain Text
Duration : 1 h 41 min
Bit rate : 44 b/s
Count of elements : 1352
Stream size : 32.6 KiB (0%)
Title : SDH
Language : English
Default : No
Forced : No

Menu
00:00:00.000 : en:Chapter 01
00:02:34.863 : en:Chapter 02
00:07:25.403 : en:Chapter 03
00:12:53.773 : en:Chapter 04
00:19:13.569 : en:Chapter 05
00:27:24.893 : en:Chapter 06
00:34:47.668 : en:Chapter 07
00:42:14.073 : en:Chapter 08
00:47:39.606 : en:Chapter 09
00:56:39.604 : en:Chapter 10
01:05:49.570 : en:Chapter 11
01:13:04.213 : en:Chapter 12
01:19:23.258 : en:Chapter 13
01:27:17.774 : en:Chapter 14
01:35:45.030 : en:Chapter 15
01:38:58.933 : en:Chapter 16




Скачать Мортал Комбат через торрент https://d.radikal.ru/d24/2107/63/2ab7217e0315.jpg Скачать, смотреть онлайн Мортал Комбат бесплантно в хорошем качестве Описание: Боец смешанных единоборств Коул Янг не раз соглашался проиграть за деньги. Он не знает о своем наследии и почему император ... 8.9 10 8
Info! Золотая раздача, скачанное не засчитывается.
Торрент: Зарегистрирован [2021-07-06 10:33] · скачан: 222 раз
Статус: √ проверено
Размер: 51.53 GB
Как cкачать? Как скачать Мортал Комбат через торрент | UTorrent

28-11-2019 20:33  


Отключить вcю реклaмy на сайте, в т.ч. и в плеере онлайн просмотра!

18-07-2021 19:30 Мортал Комбат Скачать торрент  

Благодарю за качество.



    Дорогой пользователь! Огромная просьба, поблагодарите релизера, оцените раздачу и оставьте свои комментарий, если Вы скачали Мортал Комбат через торрент бесплатно!!
    Комментировать посты могут только пользователи прошедшие не сложную регистрацию
    Показать сообщения:    


    Мортал Комбат через торрент
    Скачать бесплатно Мортал Комбат
    Мортал Комбат скачать торрент
    Мортал Комбат смотреть онлайн
    Cкачать фильм Мортал Комбат бесплатно
    Мортал Комбат скачать торрент в хорошем качестве
    Мортал Комбат смотреть онлайн бесплатно в хорошем качестве
    Вы не можете начинать темы
    Вы не можете отвечать на сообщения
    Вы не можете редактировать свои сообщения
    Вы не можете удалять свои сообщения
    Вы не можете голосовать в опросах
    Вы не можете прикреплять файлы к сообщениям
    Вы можете скачивать файлы
    Мортал Комбат / Mortal Kombat [2021, Боевик, фэнтези, фантастика, UHD BDRemux 2160p] Дубляж [Пифагор] +MVO [HDRezka] +3xAVO смотреть онлайн, скачать торрент picoco.icu