1 сезон

3 сезон

iTunes

1

iTunes

MVO

iTunes

13

1 сезон

RePack

30

Deluxe

pack

Лицензия

ВАЖНО

ИГРА 18+

pack

RePack

MK11

RePack

jed

RePack

fifa19

RePack

RDR2

RePack

NEED FOR SPEED™ PAYBACK

4 сезон

9 сезон

Бесстыжие 9 сезон

Все сериалы

все сериалы на PB.wtf

RePack

FAR CRY 5

Anonymous, доброй ночи, мы катастрофически не успеваем собрать деньги на оплату серверов, помогите нам пожалуйста 5,10,15р., для нас важна любая помощь . В качестве благодарности мы отключим Вам всю рекламу на сайте (укажите свой ник в строку Ваше имя)!

×
  
Magnet ссылка

Монстры за работой / Monsters at Work / Сезон: 1 / Серии: 1-4 из 10 (Стивен Дж. Андерсон, Роб Гиббс, Кейт Гуд) [2021, Мультсериал, фэнтези, комедия, приключения, семейный, WEBRip 720p] [MVO] (HDRezka Studio) piratbit.org

Монстры за работой через торрент piratbit.org

Раздают: 3 [ 1 KB/s ]
Размер: 2.72 GB | Добавлен: 1 д. 23 ч. назад | Торрент скачан:5 раз
Скачать  

08-07-2021 06:56 Монстры за работой Скачать торрент  

Монстры за работой / Monsters at Work

• Год выпуска: 2021
• Страна: США
• Жанр: Мультсериал, фэнтези, комедия, приключения, семейный
• Продолжительность: ~ 00:25:00
• Перевод: Профессиональный (многоголосый закадровый) *HDRezka Studio
• Субтитры: русские (форсированные), английские

• Режиссёр: Стивен Дж. Андерсон, Роб Гиббс, Кейт Гуд
• В ролях: Бонни Хант, Габриэль Иглесиас, Минди Кейлинг, Лукас Нефф, Аиша Тайлер, Генри Уинклер, Бен Фельдман, Билли Кристал, Джон Гудмен, Дженнифер Тилли

• Описание: Что произошло, когда жители города переориентировались на добычу энергии не из детского страха, а из смеха?

rating скриншот  

• Качество: WEBRip 720p
• Формат: MKV
• Видео кодек: x.264
• Аудио кодек: AC3
• Видео: AVC, 1280x720, ~3 178 kbps, 23.976 fps
• Аудио №1: 48 kHz, AC3, 6 ch, ~448 kbps - HDRezka Studio
• Аудио №2: 48 kHz, E-AC3, 2 ch, ~256 kbps - English
скриншот   скриншот   скриншот   скриншот   скриншот   скриншот  
General
Unique ID : 179739167119673741801796160340265386954 (0x873881213E3EBC95B6D1C05A77C9C3CA)
Complete name : G:\Monsters at Work.S01.x.264.WEBRip.720p\Monsters at Work.S01E01.WEBRip(72p). [MVO] (HDRezka Studio).xz.mkv
Format : Matroska
Format version : Version 4 / Version 2
File size : 697 MiB
Duration : 24mn 35s
Overall bit rate mode : Variable
Overall bit rate : 3 961 Kbps
Movie name : Monsters at Work.S01E01.WEBRip(72p). [MVO] (HDRezka Studio).xz
Encoded date : UTC 2021-07-08 06:37:22
Writing application : mkvmerge v6.1.0 ('Old Devil') built on Mar 2 2013 14:32:37
Writing library : libebml v1.3.0 + libmatroska v1.4.0
DURATION : 00:23:54.059000000
NUMBER_OF_FRAMES : 389
NUMBER_OF_BYTES : 15170
_STATISTICS_WRITING_APP : mkvmerge v57.0.0 ('Till The End') 64-bit
_STATISTICS_WRITING_DATE_UTC : 2021-07-07 07:05:11
_STATISTICS_TAGS : BPS DURATION NUMBER_OF_FRAMES NUMBER_OF_BYTES

Video
ID : 1
Format : AVC
Format/Info : Advanced Video Codec
Format profile : High@L3.1
Format settings, CABAC : Yes
Format settings, ReFrames : 4 frames
Codec ID : V_MPEG4/ISO/AVC
Duration : 24mn 35s
Bit rate mode : Variable
Bit rate : 3 178 Kbps
Maximum bit rate : 6 375 Kbps
Width : 1 280 pixels
Height : 720 pixels
Display aspect ratio : 16:9
Frame rate mode : Constant
Frame rate : 23.976 fps
Color space : YUV
Chroma subsampling : 4:2:0
Bit depth : 8 bits
Scan type : Progressive
Bits/(Pixel*Frame) : 0.144
Stream size : 559 MiB (80%)
Title : Monsters at Work.S01E01.WEBRip(72p). [MVO] (HDRezka Studio).xz
Default : Yes
Forced : No
Color range : Limited
Color primaries : BT.709
Transfer characteristics : BT.709
Matrix coefficients : BT.709

Audio #1
ID : 2
Format : AC-3
Format/Info : Audio Coding 3
Mode extension : CM (complete main)
Format settings, Endianness : Big
Codec ID : A_AC3
Duration : 24mn 35s
Bit rate mode : Constant
Bit rate : 448 Kbps
Channel(s) : 6 channels
Channel positions : Front: L C R, Side: L R, LFE
Sampling rate : 48.0 KHz
Compression mode : Lossy
Stream size : 78.8 MiB (11%)
Title : HDRezka Studio
Language : Russian
Default : Yes
Forced : No

Audio #2
ID : 3
Format : E-AC-3
Format/Info : Audio Coding 3
Format settings, Endianness : Big
Codec ID : A_EAC3
Duration : 24mn 35s
Bit rate mode : Constant
Bit rate : 256 Kbps
Channel(s) : 6 channels
Channel positions : Front: L C R, Side: L R, LFE
Sampling rate : 48.0 KHz
Compression mode : Lossy
Stream size : 45.0 MiB (6%)
Title : English
Language : English
Default : No
Forced : No

Text #1
ID : 4
Format : UTF-8
Codec ID : S_TEXT/UTF8
Codec ID/Info : UTF-8 Plain Text
Title : rus (forced) *HDRezka Studio
Language : Russian
Default : Yes
Forced : No

Text #2
ID : 5
Format : UTF-8
Codec ID : S_TEXT/UTF8
Codec ID/Info : UTF-8 Plain Text
Title : English SDH
Language : English
Default : No
Forced : No

Text #3
ID : 6
Format : UTF-8
Codec ID : S_TEXT/UTF8
Codec ID/Info : UTF-8 Plain Text
Title : English
Language : English
Default : No
Forced : No
Внимание! Раздача ведётся путём добавления новых серий; при каждом добавлении создаётся новый торрент.
Чтобы начать докачку новой серии, пользователям необходимо сделать следующее:
1. Остановить скачивание.
2. Удалить старый торрент у себя из клиента (старые серии удалять не надо).
3. Скачать новый торрент и запустить его у себя в клиенте вместо старого, при этом указать клиенту путь в старую папку куда и должно происходить скачивание новых серий.
Ваш клиент при этом должен произвести хеширование (проверку) старой папки (если не производит сам - помогите ему сделать это), и будет докачивать только те серии которых у вас ещё нет. Старые серии при этом не удаляются, а продолжают раздаваться!
Eсли вы уже удалили старые серии, то предотвратить повторную закачку старых серий можно, отжав галочку в соответствующих местах при запуске нового торрента.
piratbit.org



Скачать Монстры за работой через торрент https://i6.imageban.ru/out/2021/07/08/3b7af4f9bad5e72631580e75f1452c8f.jpg Скачать фильм Монстры за работой через торрент бесплантно в хорошем качестве Описание: Что произошло, когда жители города переориентировались на добычу энергии не из детского страха, а из смеха? • ... 8.5 10 6
Торрент: Зарегистрирован [2021-07-22 04:56] · скачан: 5 раз
Статус: √ проверено
Размер: 2.72 GB
Как cкачать? Как скачать Монстры за работой через торрент | UTorrent

28-11-2019 20:33  

Отключить всю рекламу на сайте

    Дорогой пользователь! Огромная просьба, поблагодарите релизера, оцените раздачу и оставьте свои комментарий, если Вы скачали Монстры за работой через торрент бесплатно! Внесите свою лепту в развитие PiratBit!
    Комментировать посты могут только пользователи прошедшие не сложную регистрацию
    Показать сообщения:    

    Монстры за работой через торрент
    Скачать бесплатно Монстры за работой
    Монстры за работой скачать торрент
    Монстры за работой смотреть онлайн
    Cкачать фильм Монстры за работой бесплатно
    Монстры за работой скачать торрент в хорошем качестве
    Монстры за работой смотреть онлайн бесплатно в хорошем качестве


    Вы не можете начинать темы
    Вы не можете отвечать на сообщения
    Вы не можете редактировать свои сообщения
    Вы не можете удалять свои сообщения
    Вы не можете голосовать в опросах
    Вы не можете прикреплять файлы к сообщениям
    Вы можете скачивать файлы