1 сезон

3 сезон

iTunes

1

iTunes

MVO

iTunes

13

1 сезон

RePack

30

Deluxe

pack

Лицензия

ВАЖНО

ИГРА 18+

pack

RePack

MK11

RePack

jed

RePack

fifa19

RePack

RDR2

RePack

NEED FOR SPEED™ PAYBACK

4 сезон

9 сезон

Бесстыжие 9 сезон

Все сериалы

все сериалы на PB.wtf

RePack

FAR CRY 5

Anonymous, доброе утро, мы катастрофически не успеваем собрать деньги на оплату серверов, помогите нам пожалуйста 5,10,15р., для нас важна любая помощь . В качестве благодарности мы отключим Вам всю рекламу на сайте (укажите свой ник в строку Ваше имя)!

×
  
Magnet ссылка

Война будущего / The Tomorrow War (Крис МакКей) [2021, Фантастика, боевик, WEB-DL-HEVC 2160p] MVO [Jaskier] piratbit.org

Война будущего через торрент piratbit.org

Раздают: 13 [ 29 KB/s ] Качают: 2 [ 0 KB/s ]
Размер: 15.2 GB | Добавлен: 15 д. назад | Торрент скачан:279 раз
Скачать  

08-07-2021 14:17 Война будущего Скачать торрент  

Война будущего | The Tomorrow War
Год выпуска: 2021
Страна: США
Студия: Lit Entertainment Group, New Republic Pictures, Phantom Four Films, Skydance Productions
Жанр: Фантастика, боевик
Продолжительность: 02:18:06
Перевод: Профессиональный (многоголосый) | Jaskier
Субтитры: Русские, английские

Режиссер: Крис МакКей

rating

В ролях: Крис Пратт, Ивонн Страховски, Дж.К. Симмонс, Бетти Гилпин, Сэм Ричардсон, Жасмин Мэтьюз, Эдвин Ходж, Райан Кира Армстронг, Кит Пауэрс, Мэри Линн Райскаб

Описание: В будущем инопланетяне все-таки нападут на Землю и практически не оставят людям шанса. Терпя поражение за поражением, человечество делает отчаянную попытку переломить ситуацию, а для этого призывает в свою армию солдат из прошлого. Благодаря ученым они перемещаются во времени, чтобы сразиться в новой войне.

Качество: WEB-DL-HEVC 2160p
Формат: MKV

Видео: MPEG-H HEVC, HDR10, 14.7 Мбит/с, 3840x1600
Аудио#1: AC3, 6 ch, 384 Кбит/с ||RUS|
Аудио#2: E-AC3, 6 ch, 640 Кбит/с ||ENG|
скриншот  скриншот  скриншот  скриншот  

Общее
Уникальный идентификатор : 19101001372174059760772395269720141472 (0xE5EB813BAB32930BE35D46BDB9C6EA0)
Полное имя : The.Tomorrow.War.HEVC.HDR.WEB-DL.2160p.mkv
Формат : Matroska
Версия формата : Version 4
Размер файла : 15,2 Гбайт
Продолжительность : 2 ч. 18 м.
Общий поток : 15,8 Мбит/сек
Название фильма : The.Tomorrow.War.HEVC.HDR.WEB-DL.2160p
Дата кодирования : UTC 2021-07-08 08:28:03
Программа кодирования : mkvmerge v53.0.0 ('Fool's Gold') 64-bit
Библиотека кодирования : libebml v1.4.1 + libmatroska v1.6.2

Видео
Идентификатор : 1
Формат : HEVC
Формат/Информация : High Efficiency Video Coding
Профиль формата : Main 10@L5@Main
HDR format : SMPTE ST 2094 App 4, Version 1, HDR10+ Profile B compatible
Идентификатор кодека : V_MPEGH/ISO/HEVC
Продолжительность : 2 ч. 18 м.
Битрейт : 14,7 Мбит/сек
Ширина : 3 840 пикселей
Высота : 1 600 пикселей
Соотношение сторон : 2,40:1
Режим частоты кадров : Постоянный
Частота кадров : 23,976 (24000/1001) кадра/сек
Цветовое пространство : YUV
Субдискретизация насыщенности : 4:2:0
Битовая глубина : 10 бит
Бит/(Пиксели*Кадры) : 0.100
Размер потока : 14,2 Гбайт (93%)
Default : Да
Forced : Нет
Цветовой диапазон : Limited
Основные цвета : BT.2020
Характеристики трансфера : PQ
Коэффициенты матрицы : BT.2020 non-constant
Mastering display color primaries : Display P3
Mastering display luminance : min: 0.0001 cd/m2, max: 1000 cd/m2
Maximum Content Light Level : 956 cd/m2
Maximum Frame-Average Light Level : 570 cd/m2

Аудио #1
Идентификатор : 2
Формат : AC-3
Формат/Информация : Audio Coding 3
Коммерческое название : Dolby Digital
Идентификатор кодека : A_AC3
Продолжительность : 2 ч. 18 м.
Вид битрейта : Постоянный
Битрейт : 384 Кбит/сек
Каналы : 6 каналов
Channel layout : L R C LFE Ls Rs
Частота : 48,0 КГц
Частота кадров : 31,250 кадров/сек (1536 SPF)
Метод сжатия : С потерями
Размер потока : 379 Мбайт (2%)
Заголовок : Jaskier
Язык : Russian
Service kind : Complete Main
Default : Да
Forced : Нет

Аудио #2
Идентификатор : 3
Формат : E-AC-3
Формат/Информация : Enhanced AC-3
Коммерческое название : Dolby Digital Plus
Идентификатор кодека : A_EAC3
Продолжительность : 2 ч. 18 м.
Вид битрейта : Постоянный
Битрейт : 640 Кбит/сек
Каналы : 6 каналов
Channel layout : L R C LFE Ls Rs
Частота : 48,0 КГц
Частота кадров : 31,250 кадров/сек (1536 SPF)
Метод сжатия : С потерями
Размер потока : 632 Мбайт (4%)
Язык : English
Service kind : Complete Main
Default : Нет
Forced : Нет

Текст #1
Идентификатор : 4
Формат : UTF-8
Идентификатор кодека : S_TEXT/UTF8
Идентификатор кодека/Информация : UTF-8 Plain Text
Продолжительность : 2 ч. 16 м.
Битрейт : 77 бит/сек
Count of elements : 1483
Размер потока : 77,5 Кбайт (0%)
Заголовок : Russian
Язык : Russian
Default : Нет
Forced : Нет

Текст #2
Идентификатор : 5
Формат : UTF-8
Идентификатор кодека : S_TEXT/UTF8
Идентификатор кодека/Информация : UTF-8 Plain Text
Продолжительность : 2 ч. 17 м.
Битрейт : 61 бит/сек
Count of elements : 2195
Размер потока : 61,9 Кбайт (0%)
Заголовок : English
Язык : English
Default : Нет
Forced : Нет

piratbit.org



Скачать Война будущего через торрент https://i115.fastpic.ru/big/2021/0702/d6/5bbdc33d6e0f5e9140a0ce8ef91268d6.jpg Скачать фильм Война будущего через торрент бесплантно в хорошем качестве Описание: В будущем инопланетяне все-таки нападут на Землю и практически не оставят людям шанса. Терпя поражение за поражением, ... 9.5 10 11
Info! Золотая раздача, скачанное не засчитывается.
Торрент: Зарегистрирован [2021-07-08 14:17] · скачан: 279 раз
Статус: √ проверено
Размер: 15.2 GB
Как cкачать? Как скачать Война будущего через торрент | UTorrent

% Раздел Тема Автор DL S | L
Фильмы 2021 [DVDrip, WEB-DLRip, HDrip] (DUB, MVO) [ 1.46 GB ] Война будущего / The Tomorrow War [2021 WEB-DLRip] MVO [NewComers] Twi7ter Скачать
236 | 3
Фильмы 2021 [DVDrip, WEB-DLRip, HDrip] (DUB, MVO) [ 2.18 GB ] Война будущего / The Tomorrow War [2021 WEB-DLRip] MVO [Jaskier] bober100 Скачать
4 | 0
Фильмы 2021 [DVDrip, WEB-DLRip, HDrip] (DUB, MVO) [ 2.18 GB ] Война будущего / The Tomorrow War [2021 WEB-DLRip] MVO [NewComers] Twi7ter Скачать
112 | 3
Фильмы (WEB-DL 720p, 1080p) [ 2.51 GB ] Война будущего / The Tomorrow War [2021 WEBRip 1080p] [MVO] killermax2013 Скачать
16 | 0
Фильмы 2021 [DVDrip, WEB-DLRip, HDrip] (DUB, MVO) [ 3.15 GB ] Война будущего / The Tomorrow War [2021 WEB-DLRip-AVC] MVO [Jaskier] bober100 Скачать
18 | 0
Фильмы (WEB-DL 720p, 1080p) [ 8.71 GB ] Война будущего / The Tomorrow War [2021 WEB-DL 1080p] [MVO] killermax2013 Скачать
62 | 1
Фильмы (WEB-DL 720p, 1080p) [ 8.71 GB ] Война будущего / The Tomorrow War [2021 WEB-DL 1080p] MVO [Jaskier] bober100 Скачать
24 | 2

28-11-2019 20:33  

Отключить всю рекламу на сайте

14-07-2021 03:09 Война будущего Скачать торрент  

скажите пожалуйста когда в качестве будет BDRip 1080p [iTunes] ?piratbit.org



20-07-2021 14:26 Война будущего Скачать торрент  

Адский шлак, а не фильм...piratbit.org



22-07-2021 06:42 Война будущего Скачать торрент  

Ооооооочень слабо, ооооооочень натянуто, местами дикие несостыковки. Если совсем нечего смотреть - пойдёт на один раз.
Внимание!!! При просмотре - мозг не включать! Просто смотреть картинку...piratbit.org



    Дорогой пользователь! Огромная просьба, поблагодарите релизера, оцените раздачу и оставьте свои комментарий, если Вы скачали Война будущего через торрент бесплатно! Внесите свою лепту в развитие PiratBit!
    Комментировать посты могут только пользователи прошедшие не сложную регистрацию
    Показать сообщения:    

    Война будущего через торрент
    Скачать бесплатно Война будущего
    Война будущего скачать торрент
    Война будущего смотреть онлайн
    Cкачать фильм Война будущего бесплатно
    Война будущего скачать торрент в хорошем качестве
    Война будущего смотреть онлайн бесплатно в хорошем качестве


    Вы не можете начинать темы
    Вы не можете отвечать на сообщения
    Вы не можете редактировать свои сообщения
    Вы не можете удалять свои сообщения
    Вы не можете голосовать в опросах
    Вы не можете прикреплять файлы к сообщениям
    Вы можете скачивать файлы