Достать ножи: Стеклянная луковица

MVO

Добыча

Дубляж

Уэнсдэй

1 сезон

Тор

Дубляж

13 клиническая

1 сезон

Жестокая ночь

MVO

Одни из нас

1 сезон

Deluxe

pack

Рекомендуем

30

Пиратка

ВАЖНО

ВАЖНО

Ghostwire

Пиратка

jed

RePack

nioh2

RePack

RDR2

RePack

NEED FOR SPEED™ PAYBACK

RePack

скачать торрент

Кинопоиск HD

Острые козырьки 6 сезон

6 сезон

FAR CRY 6

RePack

скачать торрент

Лицензия

скачать торрент

MVO

1

1 сезон

скачать торрент

1 сезон

скачать торрент

Лицензия

  

Кролик Питер 2 / Peter Rabbit 2: The Runaway (Уилл Глак) [2021, мультфильм, фэнтези, комедия, приключения, семейный, UHD BDRemux 2160p] Дубляж [Line]

Кролик Питер 2 через торрент piratbit.org

Размер: 35.99 GB | Добавлен: 1 год 6 мес. назад | Торрент скачан:34 раза
Смотреть онлайн | Скачать | Поддержите нас   

09-07-2021 04:06 Кролик Питер 2 Скачать торрент  

Кролик Питер 2 | Peter Rabbit 2: The Runaway
Год выпуска: 2021
Страна: США, Австралия, Индия
Выпущено: 2.0 Entertainment, Animal Logic, Columbia Pictures Corporation, MRC Film, Olive Bridge Entertainment
Жанр: мультфильм, фэнтези, комедия, приключения, семейный
Продолжительность: 01:33:22
Перевод: Дублированный | Лицензия Blu-Ray 4K
Субтитры: Русские (Forced, full), английские

Режиссер: Уилл Глак

rating

В ролях: Донал Глисон, Роуз Бирн, Джеймс Корден, Дэвид Ойелоуо, Тейлор Фергюсон, Энди Гэтергуд, Нивин Ханна, Меган Смарт, Роуэн Чэпман, Далип Сондхи

Описание: Продолжение истории маленького и непоседливого кролика по имени Питер. Беатрис, Томас и крольчата, наконец, находят общий язык и начинают спокойную и размеренную жизнь за городом. Однако Питеру это совсем не по нраву: его мятежная душа требует приключений, и он отправляется на их поиски в большой город, туда, где его проделки уж точно оценят по достоинству. Тем временем, члены его большой дружной семьи, рискуя жизнью, отправляются вслед за Питером, чтобы вернуть его домой, и теперь беглецу предстоит решить, что же для него важнее всего.

Качество: UHD BDRemux 2160p
Формат: MKV

Видео: 3840x2160 at 23.976 fps, MPEG-H HEVC HDR Video, ~ 49400 kbps avg
Аудио #01: 48 kHz, AC3, 5.1, 448 Kbps | Дублированный | RUS |
Аудио #02: 48 kHz, TrueHD, 7.1, 4634 Kbps | Оригинал | ENG |
Аудио #03: 48 kHz, AC3, 5.1, 640 Kbps | Оригинал | ENG |
скриншот  скриншот  скриншот  скриншот  скриншот  

General
Unique ID : 73749410546896009469940571057023293795 (0x377B9EAC3776292D91DEEA11E9B71963)
Complete name : F:VideoPeter.Rabbit.2.The.Runaway.2021.BDREMUX.2160p.HDR.seleZen.mkv
Format : Matroska
Format version : Version 4
File size : 36.0 GiB
Duration : 1 h 33 min
Overall bit rate mode : Variable
Overall bit rate : 55.2 Mb/s
Movie name : Peter Rabbit 2 The Runaway 2021 from seleZen
Encoded date : UTC 2021-08-05 01:06:39
Writing application : mkvmerge v59.0.0 ('Shining Star') 64-bit
Writing library : libebml v1.4.2 + libmatroska v1.6.4

Video
ID : 1
Format : HEVC
Format/Info : High Efficiency Video Coding
Format profile : Main 10@L5.1@High
HDR format : SMPTE ST 2086, HDR10 compatible
Codec ID : V_MPEGH/ISO/HEVC
Duration : 1 h 33 min
Bit rate : 49.4 Mb/s
Width : 3 840 pixels
Height : 2 160 pixels
Display aspect ratio : 16:9
Frame rate mode : Constant
Frame rate : 23.976 (24000/1001) FPS
Color space : YUV
Chroma subsampling : 4:2:0 (Type 2)
Bit depth : 10 bits
Bits/(Pixel*Frame) : 0.248
Stream size : 32.2 GiB (90%)
Language : English
Default : Yes
Forced : No
Color range : Limited
Color primaries : BT.2020
Transfer characteristics : PQ
Matrix coefficients : BT.2020 non-constant
Mastering display color pri : Display P3
Mastering display luminance : min: 0.0050 cd/m2, max: 4000 cd/m2
Maximum Content Light Level : 992 cd/m2
Maximum Frame-Average Light : 420 cd/m2

Audio #1
ID : 2
Format : AC-3
Format/Info : Audio Coding 3
Commercial name : Dolby Digital
Codec ID : A_AC3
Duration : 1 h 33 min
Bit rate mode : Constant
Bit rate : 448 kb/s
Channel(s) : 6 channels
Channel layout : L R C LFE Ls Rs
Sampling rate : 48.0 kHz
Frame rate : 31.250 FPS (1536 SPF)
Compression mode : Lossy
Stream size : 299 MiB (1%)
Title : Дубляж [License Blu-Ray 4K]
Language : Russian
Service kind : Complete Main
Default : Yes
Forced : Yes

Audio #2
ID : 3
Format : MLP FBA 16-ch
Format/Info : Meridian Lossless Packing FBA with 16-channel presentation
Commercial name : Dolby TrueHD with Dolby Atmos
Codec ID : A_TRUEHD
Duration : 1 h 33 min
Bit rate mode : Variable
Bit rate : 4 634 kb/s
Maximum bit rate : 7 737 kb/s
Channel(s) : 8 channels
Channel layout : L R C LFE Ls Rs Lb Rb
Sampling rate : 48.0 kHz
Frame rate : 1 200.000 FPS (40 SPF)
Compression mode : Lossless
Stream size : 3.02 GiB (8%)
Title : Original
Language : English
Default : No
Forced : No
Number of dynamic objects : 11
Bed channel count : 1 channel
Bed channel configuration : LFE

Audio #3
ID : 4
Format : AC-3
Format/Info : Audio Coding 3
Commercial name : Dolby Digital
Codec ID : A_AC3
Duration : 1 h 33 min
Bit rate mode : Constant
Bit rate : 640 kb/s
Channel(s) : 6 channels
Channel layout : L R C LFE Ls Rs
Sampling rate : 48.0 kHz
Frame rate : 31.250 FPS (1536 SPF)
Compression mode : Lossy
Stream size : 427 MiB (1%)
Language : English
Service kind : Complete Main
Default : No
Forced : No

Text #1
ID : 5
Format : UTF-8
Codec ID : S_TEXT/UTF8
Codec ID/Info : UTF-8 Plain Text
Duration : 1 h 20 min
Bit rate : 3 b/s
Count of elements : 56
Stream size : 2.16 KiB (0%)
Title : Forced
Language : Russian
Default : Yes
Forced : Yes

Text #2
ID : 6
Format : UTF-8
Codec ID : S_TEXT/UTF8
Codec ID/Info : UTF-8 Plain Text
Duration : 1 h 32 min
Bit rate : 117 b/s
Count of elements : 1386
Stream size : 80.0 KiB (0%)
Title : Full
Language : Russian
Default : No
Forced : No

Text #3
ID : 7
Format : UTF-8
Codec ID : S_TEXT/UTF8
Codec ID/Info : UTF-8 Plain Text
Duration : 1 h 26 min
Bit rate : 83 b/s
Count of elements : 1521
Stream size : 52.7 KiB (0%)
Title : Full
Language : English
Default : No
Forced : No

Text #4
ID : 8
Format : UTF-8
Codec ID : S_TEXT/UTF8
Codec ID/Info : UTF-8 Plain Text
Duration : 1 h 32 min
Bit rate : 84 b/s
Count of elements : 1749
Stream size : 57.2 KiB (0%)
Title : SDH
Language : English
Default : No
Forced : No

Menu
00:00:00.000 : Глава 01
00:05:31.665 : Глава 02
00:10:14.113 : Глава 03
00:14:34.540 : Глава 04
00:19:46.685 : Глава 05
00:26:22.331 : Глава 06
00:31:54.871 : Глава 07
00:38:46.950 : Глава 08
00:46:33.541 : Глава 09
00:50:49.797 : Глава 10
00:56:08.156 : Глава 11
01:05:45.066 : Глава 12
01:08:21.973 : Глава 13
01:12:51.701 : Глава 14
01:16:07.313 : Глава 15
01:19:09.328 : Глава 16




Скачать Кролик Питер 2 через торрент https://st-kp-yandex-net.translate.goog/images/film_iphone/iphone360_1122117.jpg Скачать, смотреть онлайн Кролик Питер 2 бесплантно в хорошем качестве Описание: Продолжение истории маленького и непоседливого кролика по имени Питер. Беатрис, Томас и крольчата, наконец, находят общий язык и ... 9.7 10 6
Торрент: Зарегистрирован [2021-08-05 03:46] · скачан: 34 раз
Статус: √ проверено
Размер: 35.99 GB
Как cкачать? Как скачать Кролик Питер 2 через торрент | UTorrent

% Раздел Тема Автор DL S | L
Фильмы 2021 [DVDrip, WEB-DLRip, HDrip] (DUB, MVO) [ 1.46 GB ] Кролик Питер 2 / Peter Rabbit 2: The Runaway | | DLRip Twi7ter Скачать
2 | 0
Фильмы 2021 [DVDrip, WEB-DLRip, HDrip] (DUB, MVO) [ 1.46 GB ] Кролик Питер 2 / Peter Rabbit 2: The Runaway | Лицензия | BDRip Twi7ter Скачать
10 | 0
Фильмы 2021 [DVDrip, WEB-DLRip, HDrip] (DUB, MVO) [ 2.19 GB ] Кролик Питер 2 / Peter Rabbit 2: The Runaway | Лицензия | HDRip-AVC Lithuania Скачать
1 | 0
Фильмы 2021 [DVDrip, WEB-DLRip, HDrip] (DUB, MVO) [ 1.46 GB ] Кролик Питер 2 / Peter Rabbit 2: The Runaway | Лицензия Blu-Ray 4K | BDRip bober100 Скачать
1 | 0
Фильмы 2021 [DVDrip, WEB-DLRip, HDrip] (DUB, MVO) [ 746 MB ] Кролик Питер 2 / Peter Rabbit 2: The Runaway | Лицензия Blu-Ray 4K | BDRip bober100 Скачать
1 | 0
Фильмы (Blu-ray, BD-Remux, HDDVD) [ 17.93 GB ] Кролик Питер 2 / Peter Rabbit 2: The Runaway | Лицензия Blu-Ray 4K | BD Remux 1080p bober100 Скачать
1 | 0
Фильмы [HD 720p, 1080p] (Хороший звук DUB, MVO) [ 3.53 GB ] Кролик Питер 2 / Peter Rabbit 2: The Runaway | Лицензия Blu-Ray 4K | 720p bober100 Скачать
1 | 0

28-11-2019 20:33  


Отключить вcю реклaмy на сайте, в т.ч. и в плеере онлайн просмотра!

    Дорогой пользователь! Огромная просьба, поблагодарите релизера, оцените раздачу и оставьте свои комментарий, если Вы скачали Кролик Питер 2 через торрент бесплатно!!
    Комментировать посты могут только пользователи прошедшие не сложную регистрацию
    Показать сообщения:    


    Кролик Питер 2 через торрент
    Скачать бесплатно Кролик Питер 2
    Кролик Питер 2 скачать торрент
    Кролик Питер 2 смотреть онлайн
    Cкачать фильм Кролик Питер 2 бесплатно
    Кролик Питер 2 скачать торрент в хорошем качестве
    Кролик Питер 2 смотреть онлайн бесплатно в хорошем качестве
    Вы не можете начинать темы
    Вы не можете отвечать на сообщения
    Вы не можете редактировать свои сообщения
    Вы не можете удалять свои сообщения
    Вы не можете голосовать в опросах
    Вы не можете прикреплять файлы к сообщениям
    Вы можете скачивать файлы
    Кролик Питер 2 / Peter Rabbit 2: The Runaway [2021, мультфильм, фэнтези, комедия, приключения, семейный, UHD BDRemux 2160p] Дубляж [Line] смотреть онлайн, скачать торрент picoco.icu