Достать ножи: Стеклянная луковица

MVO

Добыча

Дубляж

Уэнсдэй

1 сезон

Тор

Дубляж

13 клиническая

1 сезон

Жестокая ночь

MVO

Одни из нас

1 сезон

Deluxe

pack

Рекомендуем

30

Пиратка

ВАЖНО

ВАЖНО

Ghostwire

Пиратка

jed

RePack

nioh2

RePack

RDR2

RePack

NEED FOR SPEED™ PAYBACK

RePack

скачать торрент

Кинопоиск HD

Острые козырьки 6 сезон

6 сезон

FAR CRY 6

RePack

скачать торрент

Лицензия

скачать торрент

MVO

1

1 сезон

скачать торрент

1 сезон

скачать торрент

Лицензия

  

Чёрная Вдова / Black Widow (Кейт Шортланд) [2021, Фантастика, боевик, приключения, WEB-DL-HEVC 2160p] Дубляж [Line] +MVO [HDRezka]

Чёрная Вдова через торрент piratbit.org

Раздают: 1 [ 0 KB/s ]
Размер: 16.67 GB | Добавлен: 1 год 6 мес. назад | Торрент скачан:1125 раз
Смотреть онлайн | Скачать | Поддержите нас   

12-07-2021 03:14 Чёрная Вдова Скачать торрент  

Чёрная Вдова | Black Widow
Год выпуска: 2021
Страна: США
Студия: Marvel Studios Inc.
Жанр: Фантастика, боевик, приключения
Продолжительность: 02:13:47
Перевод:
#1: Дублированный | Line
#2: Профессиональный (многоголосый) | HDRezka
Субтитры: Русские (Forced, Full), английские (Full, SDH)

Режиссер: Кейт Шортланд

rating

В ролях: Скарлетт Йоханссон, Флоренс Пью, Дэвид Харбор, О. Т. Фагбенли, Ольга Куриленко, Уильям Хёрт, Рэй Уинстон, Рэйчел Вайс, Эвер Андерсон, Виолет Макгроу

Описание: Наташе Романофф предстоит лицом к лицу встретиться со своим прошлым. Чёрной Вдове придется вспомнить о том, что было в её жизни задолго до присоединения к команде Мстителей, и узнать об опасном заговоре, в который оказываются втянуты её старые знакомые — Елена, Алексей (известный как Красный Страж) и Мелина.

Качество: WEB-DL-HEVC 2160p
Формат: MKV

Видео: MPEG-H HEVC, HDR, 3840x2160 (16:9), 23.976 fps, 16,4 Mb/s, 10 Bit
Аудио 1: AC3, 48.0 kHz, 2 ch, 256 kb/s | RUS [Дубляж, Line] | Tnx KinoPub
Аудио 2: AC3, 48.0 kHz, 6 ch, 448 kb/s | RUS [MVO, HDRezka]
Аудио 3: E-AC3 JOC, 48.0 kHz, 6 ch, 768 kb/s | ENG [Оригинал]
скриншот  скриншот  скриншот  скриншот  

Общее
Уникальный идентификатор : 253296191621334966281603099687458397881 (0xBE8F12702EDCEEFE922E51BDCD9F5EB9)
Полное имя : Black.Widow.2021.WEB-DL.2160p.HDR.mkv
Формат : Matroska
Версия формата : Version 4 / Version 2
Размер файла : 16,7 Гбайт
Продолжительность : 2 ч. 13 м.
Общий поток : 17,8 Мбит/сек
Дата кодирования : UTC 2021-07-11 19:51:12
Программа кодирования : mkvmerge v8.3.0 ('Over the Horizon') 64bit
Библиотека кодирования : libebml v1.3.1 + libmatroska v1.4.2

Видео
Идентификатор : 1
Формат : HEVC
Формат/Информация : High Efficiency Video Coding
Профиль формата : Main 10@L5@High
HDR format : SMPTE ST 2086, HDR10 compatible
Идентификатор кодека : V_MPEGH/ISO/HEVC
Продолжительность : 2 ч. 13 м.
Битрейт : 16,4 Мбит/сек
Ширина : 3 840 пикселей
Высота : 2 160 пикселей
Соотношение сторон : 16:9
Режим частоты кадров : Постоянный
Частота кадров : 23,976 (24000/1001) кадра/сек
Цветовое пространство : YUV
Субдискретизация насыщенности : 4:2:0
Битовая глубина : 10 бит
Бит/(Пиксели*Кадры) : 0.082
Размер потока : 15,3 Гбайт (92%)
Default : Да
Forced : Нет
Цветовой диапазон : Limited
Основные цвета : BT.2020
Характеристики трансфера : PQ
Коэффициенты матрицы : BT.2020 non-constant
Mastering display color primaries : Display P3
Mastering display luminance : min: 0.0050 cd/m2, max: 4000 cd/m2

Аудио #1
Идентификатор : 2
Формат : AC-3
Формат/Информация : Audio Coding 3
Коммерческое название : Dolby Digital
Идентификатор кодека : A_AC3
Продолжительность : 2 ч. 13 м.
Вид битрейта : Постоянный
Битрейт : 256 Кбит/сек
Каналы : 2 канала
Channel layout : L R
Частота : 48,0 КГц
Частота кадров : 31,250 кадров/сек (1536 SPF)
Метод сжатия : С потерями
Размер потока : 245 Мбайт (1%)
Заголовок : Дубляж (Line)
Язык : Russian
Service kind : Complete Main
Default : Да
Forced : Нет

Аудио #2
Идентификатор : 3
Формат : AC-3
Формат/Информация : Audio Coding 3
Коммерческое название : Dolby Digital
Идентификатор кодека : A_AC3
Продолжительность : 2 ч. 13 м.
Вид битрейта : Постоянный
Битрейт : 448 Кбит/сек
Каналы : 6 каналов
Channel layout : L R C LFE Ls Rs
Частота : 48,0 КГц
Частота кадров : 31,250 кадров/сек (1536 SPF)
Метод сжатия : С потерями
Размер потока : 429 Мбайт (3%)
Заголовок : MVO (HDRezka)
Язык : Russian
Service kind : Complete Main
Default : Нет
Forced : Нет

Аудио #3
Идентификатор : 4
Формат : E-AC-3 JOC
Формат/Информация : Enhanced AC-3 with Joint Object Coding
Коммерческое название : Dolby Digital Plus with Dolby Atmos
Идентификатор кодека : A_EAC3
Продолжительность : 2 ч. 13 м.
Вид битрейта : Постоянный
Битрейт : 768 Кбит/сек
Каналы : 6 каналов
Channel layout : L R C LFE Ls Rs
Частота : 48,0 КГц
Частота кадров : 31,250 кадров/сек (1536 SPF)
Метод сжатия : С потерями
Размер потока : 735 Мбайт (4%)
Заголовок : Original
Язык : English
Service kind : Complete Main
Default : Нет
Forced : Нет
Complexity index : 16
Number of dynamic objects : 15
Bed channel count : 1 канал
Bed channel configuration : LFE

Текст #1
Идентификатор : 5
Формат : UTF-8
Идентификатор кодека : S_TEXT/UTF8
Идентификатор кодека/Информация : UTF-8 Plain Text
Продолжительность : 2 ч. 11 м.
Битрейт : 1 бит/сек
Count of elements : 44
Размер потока : 1,71 Кбайт (0%)
Заголовок : Forced
Язык : Russian
Default : Да
Forced : Нет

Текст #2
Идентификатор : 6
Формат : UTF-8
Идентификатор кодека : S_TEXT/UTF8
Идентификатор кодека/Информация : UTF-8 Plain Text
Продолжительность : 2 ч. 12 м.
Битрейт : 67 бит/сек
Count of elements : 1282
Размер потока : 65,7 Кбайт (0%)
Заголовок : Full
Язык : Russian
Default : Нет
Forced : Нет

Текст #3
Идентификатор : 7
Формат : UTF-8
Идентификатор кодека : S_TEXT/UTF8
Идентификатор кодека/Информация : UTF-8 Plain Text
Продолжительность : 2 ч. 12 м.
Битрейт : 39 бит/сек
Count of elements : 1306
Размер потока : 38,8 Кбайт (0%)
Заголовок : Full
Язык : English
Default : Нет
Forced : Нет

Текст #4
Идентификатор : 8
Формат : UTF-8
Идентификатор кодека : S_TEXT/UTF8
Идентификатор кодека/Информация : UTF-8 Plain Text
Продолжительность : 2 ч. 13 м.
Битрейт : 46 бит/сек
Count of elements : 1630
Размер потока : 45,7 Кбайт (0%)
Заголовок : SDH
Язык : English
Default : Нет
Forced : Нет




Скачать Чёрная Вдова через торрент https://i115.fastpic.ru/big/2021/0710/60/92353533d337aedd87d5d3a0a8416960.jpg Скачать, смотреть онлайн Чёрная Вдова бесплантно в хорошем качестве Описание: Наташе Романофф предстоит лицом к лицу встретиться со своим прошлым. Чёрной Вдове придется вспомнить о том, что было в её жизни ... 10 10 28
Info! Золотая раздача, скачанное не засчитывается.
Торрент: Зарегистрирован [2021-07-12 03:14] · скачан: 1 125 раз
Статус: T временная
Размер: 16.67 GB
Как cкачать? Как скачать Чёрная Вдова через торрент | UTorrent

% Раздел Тема Автор DL S | L
3D Фильмы [ 8.43 GB ] Чёрная Вдова 3D/ Black Widow 3D | Дубляж | 1080p, Дубляж slaventi-69 Скачать
1 | 0
3D Фильмы [ 11.75 GB ] Чёрная Вдова в 3Д / Black Widow 3D | iTunes | 1080p serega768 Скачать
1 | 0
Фильмы (WEB-DL 720p, 1080p) [ 3.1 GB ] Чёрная Вдова / Black Widow | HDRezka Studio | 1080p killermax2013 Скачать
4 | 0
Фильмы 2021 [DVDrip, WEB-DLRip, HDrip] (DUB, MVO) [ 3.05 GB ] Чёрная Вдова / Black Widow | iTunes | HDRip-AVC Lithuania Скачать
3 | 0
Фильмы 2021 [DVDrip, WEB-DLRip, HDrip] (DUB, MVO) [ 2.12 GB ] Чёрная Вдова / Black Widow | Лицензия | BDRip Twi7ter Скачать
21 | 0
Фильмы 2021 [DVDrip, WEB-DLRip, HDrip] (DUB, MVO) [ 1.46 GB ] Чёрная Вдова / Black Widow | Лицензия | BDRip Twi7ter Скачать
9 | 0
Фильмы (Blu-ray, BD-Remux, HDDVD) [ 40.91 GB ] Чёрная Вдова / Black Widow | iTunes | BD Remux 1080p, (2D/3D bober100 Скачать
2 | 1

28-11-2019 20:33  


Отключить вcю реклaмy на сайте, в т.ч. и в плеере онлайн просмотра!

29-07-2021 13:36 Чёрная Вдова Скачать торрент  

Адская клюква.....



30-07-2021 15:29 Чёрная Вдова Скачать торрент  

Как звук с ДУБлированной версии? Фиговый? С кинотеатров записан?



05-08-2021 09:06 Чёрная Вдова Скачать торрент  

Vad_IM писал(а):

Как звук с ДУБлированной версии? Фиговый? С кинотеатров записан?

Тихий, и есть что-то вроде фонового шипения между репликами.



08-08-2021 18:33 Чёрная Вдова Скачать торрент  

Ждём нормальный звук



12-08-2021 22:42 Чёрная Вдова Скачать торрент  

Шляпа редкостная.



12-08-2021 23:42 Чёрная Вдова Скачать торрент  

не досмотрел - такая хрень



    Дорогой пользователь! Огромная просьба, поблагодарите релизера, оцените раздачу и оставьте свои комментарий, если Вы скачали Чёрная Вдова через торрент бесплатно!!
    Комментировать посты могут только пользователи прошедшие не сложную регистрацию
    Показать сообщения:    


    Чёрная Вдова через торрент
    Скачать бесплатно Чёрная Вдова
    Чёрная Вдова скачать торрент
    Чёрная Вдова смотреть онлайн
    Cкачать фильм Чёрная Вдова бесплатно
    Чёрная Вдова скачать торрент в хорошем качестве
    Чёрная Вдова смотреть онлайн бесплатно в хорошем качестве
    Вы не можете начинать темы
    Вы не можете отвечать на сообщения
    Вы не можете редактировать свои сообщения
    Вы не можете удалять свои сообщения
    Вы не можете голосовать в опросах
    Вы не можете прикреплять файлы к сообщениям
    Вы можете скачивать файлы
    Чёрная Вдова / Black Widow [2021, Фантастика, боевик, приключения, WEB-DL-HEVC 2160p] Дубляж [Line] +MVO [HDRezka] смотреть онлайн, скачать торрент picoco.icu