1 сезон

3 сезон

iTunes

1

iTunes

MVO

iTunes

13

1 сезон

RePack

30

Deluxe

pack

Лицензия

ВАЖНО

ИГРА 18+

pack

RePack

MK11

RePack

jed

RePack

fifa19

RePack

RDR2

RePack

NEED FOR SPEED™ PAYBACK

4 сезон

9 сезон

Бесстыжие 9 сезон

Все сериалы

все сериалы на PB.wtf

RePack

FAR CRY 5

Anonymous, доброй ночи, мы катастрофически не успеваем собрать деньги на оплату серверов, помогите нам пожалуйста 5,10,15р., для нас важна любая помощь . В качестве благодарности мы отключим Вам всю рекламу на сайте (укажите свой ник в строку Ваше имя)!

×
  
Magnet ссылка

Тьма в Гаване / Havana Darkness (Гильермо Иван) [2019, Триллер, HDRip-AVC] MVO [HDRezka Studio] от MediaBit piratbit.org

Тьма в Гаване через торрент piratbit.org

Раздают: 5 [ 0 KB/s ]
Размер: 1.45 GB | Добавлен: 11 д. назад | Торрент скачан:70 раз
Скачать  

12-07-2021 19:28 Тьма в Гаване Скачать торрент  


Тьма в Гаване / Havana Darkness
Информация о фильме:
Название: Тьма в Гаване
Оригинальное название: Havana Darkness
Год выхода: 2019
Жанр: Триллер
Режиссер: Гильермо Иван
В ролях: Каролина Равасса, Гильермо Иван, Джек Димич, Монте Безелл, Ханна Д. Скотт, Зэк Роуз, Заир Монтес, Лорис Курчи, Питер Перейра, Идальмис Гарсия

Описание: Отправляясь в Гавану, столицу Кубы, чтобы выяснить происхождение таинственной рукописи, предположительно написанной известным американским писателем Эрнестом Хемингуэем, трое друзей оказываются в ловушке внутри заброшенного здания, расположенного в центре города. Ребята должны как можно быстрее пройти через лабиринт смертельных ловушек, чтобы найти выход из здания, прежде чем их выследит и убьёт кровавый маньяк.



Страна: США
Студия: Open Frames, Global Group, Golden Ceiba Productions
Продолжительность: 01:24:54
Перевод: Профессиональный (многоголосый, закадровый) - HDRezka Studio



Информация о файле:
Кодек: AVC
Формат: MKV
Качество: HDRip-AVC
Видео: MPEG-4 AVC, 1024x576, 23.976 fps, 1806 kbps
Аудио RU: AC3, 2 ch, 48 kHz, 192 kbps
Аудио EN: AC3, 6 ch, 48 kHz, 448 kbps
Субтитры: Английские
Навигация по главам: Да

x264 info: frame I:857 Avg QP:13.36 size: 82012
x264 info: frame P:27832 Avg QP:17.13 size: 22248
x264 info: frame B:93448 Avg QP:20.69 size: 4914
x264 info: consecutive B-frames: 2.4% 3.0% 13.1% 18.1% 19.4% 33.2% 4.9% 1.7% 2.5% 0.3% 0.2% 0.2% 1.2%
General
Unique ID : 333497240039151779512475973426354218437 (0xFAE53B6AA7E9AD19AAD94B01C03E65C5)
Complete name : D:uTorrentРипы wolf1245Havana.Darkness.2019.MVO.HDRip-AVC.[wolf1245.MediaBit].mkv
Format : Matroska
Format version : Version 4
File size : 1.45 GiB
Duration : 1 h 24 min
Overall bit rate : 2 446 kb/s
Movie name : Havana.Darkness.2019.MVO.HDRip-AVC.[wolf1245.MediaBit]
Encoded date : UTC 2021-07-12 19:15:34
Writing application : mkvmerge v59.0.0 ('Shining Star') 64-bit
Writing library : libebml v1.4.2 + libmatroska v1.6.4
Video
ID : 1
Format : AVC
Format/Info : Advanced Video Codec
Format profile : High@L4.1
Format settings : CABAC / 14 Ref Frames
Format settings, CABAC : Yes
Format settings, Reference frames : 14 frames
Codec ID : V_MPEG4/ISO/AVC
Duration : 1 h 24 min
Bit rate : 1 806 kb/s
Width : 1 024 pixels
Height : 576 pixels
Display aspect ratio : 16:9
Frame rate mode : Constant
Frame rate : 23.976 (24000/1001) FPS
Color space : YUV
Chroma subsampling : 4:2:0
Bit depth : 8 bits
Scan type : Progressive
Bits/(Pixel*Frame) : 0.128
Stream size : 1.07 GiB (74%)
Title : .[wolf1245.MediaBit]
Writing library : x264 core 157 r2958 57baac4
Encoding settings : cabac=1 / ref=14 / deblock=1:-3:-2 / analyse=0x3:0x133 / me=umh / subme=11 / psy=1 / psy_rd=1.00:0.07 / mixed_ref=1 / me_range=48 / chroma_me=1 / trellis=2 / 8x8dct=1 / cqm=0 / deadzone=21,11 / fast_pskip=1 / chroma_qp_offset=-3 / threads=10 / lookahead_threads=2 / sliced_threads=0 / nr=0 / decimate=1 / interlaced=0 / bluray_compat=0 / constrained_intra=0 / bframes=12 / b_pyramid=2 / b_adapt=2 / b_bias=0 / direct=3 / weightb=1 / open_gop=0 / weightp=2 / keyint=240 / keyint_min=24 / scenecut=40 / intra_refresh=0 / rc_lookahead=60 / rc=2pass / mbtree=1 / bitrate=1806 / ratetol=1.0 / qcomp=0.60 / qpmin=0 / qpmax=69 / qpstep=4 / cplxblur=20.0 / qblur=0.5 / vbv_maxrate=50000 / vbv_bufsize=62500 / nal_hrd=none / filler=0 / ip_ratio=1.40 / aq=3:0.80
Language : English
Default : Yes
Forced : No
Audio #1
ID : 2
Format : AC-3
Format/Info : Audio Coding 3
Commercial name : Dolby Digital
Codec ID : A_AC3
Duration : 1 h 24 min
Bit rate mode : Constant
Bit rate : 192 kb/s
Channel(s) : 2 channels
Channel layout : L R
Sampling rate : 48.0 kHz
Frame rate : 31.250 FPS (1536 SPF)
Bit depth : 16 bits
Compression mode : Lossy
Stream size : 117 MiB (8%)
Title : MVO | HDRezka Studio
Language : Russian
Service kind : Complete Main
Default : Yes
Forced : No
Audio #2
ID : 3
Format : AC-3
Format/Info : Audio Coding 3
Commercial name : Dolby Digital
Codec ID : A_AC3
Duration : 1 h 24 min
Bit rate mode : Constant
Bit rate : 448 kb/s
Channel(s) : 6 channels
Channel layout : L R C LFE Ls Rs
Sampling rate : 48.0 kHz
Frame rate : 31.250 FPS (1536 SPF)
Bit depth : 16 bits
Compression mode : Lossy
Stream size : 272 MiB (18%)
Title : Original
Language : English
Service kind : Complete Main
Default : No
Forced : No
Text #1
ID : 4
Format : UTF-8
Codec ID : S_TEXT/UTF8
Codec ID/Info : UTF-8 Plain Text
Duration : 1 h 21 min
Bit rate : 31 b/s
Count of elements : 652
Stream size : 18.8 KiB (0%)
Language : English
Default : No
Forced : No
Text #2
ID : 5
Format : UTF-8
Codec ID : S_TEXT/UTF8
Codec ID/Info : UTF-8 Plain Text
Duration : 1 h 22 min
Bit rate : 33 b/s
Count of elements : 709
Stream size : 20.2 KiB (0%)
Title : SDH
Language : English
Default : No
Forced : No
Menu
00:00:00.000 : :绗?01 绔?
00:10:36.219 : :绗?02 绔?
00:21:12.146 : :绗?03 绔?
00:30:15.814 : :绗?04 绔?
00:40:03.818 : :绗?05 绔?
00:49:36.807 : :绗?06 绔?
01:00:01.515 : :绗?07 绔?
01:08:37.322 : :绗?08 绔?
01:19:29.348 : :绗?09 绔?
Релиз от: &
Автор релиза:
piratbit.org



Скачать Тьма в Гаване через торрент https://i115.fastpic.ru/big/2021/0712/76/080b8d26ab02597364e2636c5fc03d76.jpg Скачать фильм Тьма в Гаване через торрент бесплантно в хорошем качестве Описание: Отправляясь в Гавану, столицу Кубы, чтобы выяснить происхождение таинственной рукописи, предположительно написанной известным ... 10 10 6
Торрент: Зарегистрирован [2021-07-12 19:28] · скачан: 70 раз
Статус: T временная
Размер: 1.45 GB
Как cкачать? Как скачать Тьма в Гаване через торрент | UTorrent

28-11-2019 20:33  

Отключить всю рекламу на сайте

13-07-2021 23:37 Тьма в Гаване Скачать торрент  

говорят фигняpiratbit.org



14-07-2021 00:42 Тьма в Гаване Скачать торрент  

pirotehnik771 писал(а):

говорят фигня

ну дык это и из описания понятно)piratbit.org



    Дорогой пользователь! Огромная просьба, поблагодарите релизера, оцените раздачу и оставьте свои комментарий, если Вы скачали Тьма в Гаване через торрент бесплатно! Внесите свою лепту в развитие PiratBit!
    Комментировать посты могут только пользователи прошедшие не сложную регистрацию
    Показать сообщения:    

    Тьма в Гаване через торрент
    Скачать бесплатно Тьма в Гаване
    Тьма в Гаване скачать торрент
    Тьма в Гаване смотреть онлайн
    Cкачать фильм Тьма в Гаване бесплатно
    Тьма в Гаване скачать торрент в хорошем качестве
    Тьма в Гаване смотреть онлайн бесплатно в хорошем качестве


    Вы не можете начинать темы
    Вы не можете отвечать на сообщения
    Вы не можете редактировать свои сообщения
    Вы не можете удалять свои сообщения
    Вы не можете голосовать в опросах
    Вы не можете прикреплять файлы к сообщениям
    Вы можете скачивать файлы