1 сезон

3 сезон

iTunes

1

iTunes

MVO

iTunes

13

1 сезон

RePack

30

Deluxe

pack

Лицензия

ВАЖНО

ИГРА 18+

pack

RePack

MK11

RePack

jed

RePack

fifa19

RePack

RDR2

RePack

NEED FOR SPEED™ PAYBACK

4 сезон

9 сезон

Бесстыжие 9 сезон

Все сериалы

все сериалы на PB.wtf

RePack

FAR CRY 5

Anonymous, доброй ночи, мы катастрофически не успеваем собрать деньги на оплату серверов, помогите нам пожалуйста 5,10,15р., для нас важна любая помощь . В качестве благодарности мы отключим Вам всю рекламу на сайте (укажите свой ник в строку Ваше имя)!

×
  
Magnet ссылка

Она умрёт завтра / She Dies Tomorrow (Эми Саймец) [2020, Триллер, драма, HDRip-AVC] MVO [iTunes] от MediaBit piratbit.org

Она умрёт завтра через торрент piratbit.org

Раздают: 3 [ 0 KB/s ]
Размер: 2.05 GB | Добавлен: 8 д. назад | Торрент скачан:61 раз
Скачать  

15-07-2021 17:12 Она умрёт завтра Скачать торрент  


Она умрёт завтра / She Dies Tomorrow
Информация о фильме:
Название: Она умрёт завтра
Оригинальное название: She Dies Tomorrow
Год выхода: 2020
Жанр: Триллер, драма
Режиссер: Эми Саймец
В ролях: Кейт Лин Шейл, Джейн Адамс, Кентакер Одли, Кэтрин Аселтон, Крис Мессина, Тунде Адебимпе, Дженнифер Ким, Джош Лукас, Адам Вингард, Мишель Родригес

Описание: Эми уверена, что завтра умрёт. Она напивается и говорит подруге Джейн, чтобы после смерти та сделала из её кожи куртку. Джейн пытается вразумить Эми, но эта странная убеждённость оказывается заразной — теперь она тоже уверена, что завтра умрёт.



Страна: США
Студия: Rustic Films
Продолжительность: 01:24:52
Перевод: Профессиональный (многоголосый, закадровый) - iTunes



Информация о файле:
Кодек: AVC
Формат: MKV
Качество: HDRip-AVC
Видео: MPEG-4 AVC, 1024x576, 23.976 fps, 2624 kbps
Аудио RU: AC3, 6 ch, 48 kHz, 384 kbps
Аудио EN: AC3, 6 ch, 48 kHz, 448 kbps
Субтитры: Русские (2 x full), английские
Навигация по главам: Да

x264 info: frame I:705 Avg QP:11.67 size: 90029
x264 info: frame P:23424 Avg QP:14.74 size: 30073
x264 info: frame B:97957 Avg QP:17.90 size: 9208
x264 info: consecutive B-frames: 2.3% 1.3% 2.7% 4.9% 6.3% 75.1% 3.7% 1.1% 1.1% 0.4% 0.4% 0.5% 0.3%
General
Unique ID : 199639323201797247997537908520958035837 (0x963122937FB6848FF6B0FE1D0330077D)
Complete name : D:uTorrentРипы wolf1245Ona.Umriot.Zavtra.2020.MVO.HDRip-AVC.[wolf1245.MediaBit].mkv
Format : Matroska
Format version : Version 4
File size : 2.05 GiB
Duration : 1 h 24 min
Overall bit rate : 3 458 kb/s
Movie name : Ona.Umriot.Zavtra.2020.MVO.HDRip-AVC.[wolf1245.MediaBit]
Encoded date : UTC 2021-07-15 16:59:37
Writing application : mkvmerge v59.0.0 ('Shining Star') 64-bit
Writing library : libebml v1.4.2 + libmatroska v1.6.4
Video
ID : 1
Format : AVC
Format/Info : Advanced Video Codec
Format profile : High@L4.1
Format settings : CABAC / 14 Ref Frames
Format settings, CABAC : Yes
Format settings, Reference frames : 14 frames
Codec ID : V_MPEG4/ISO/AVC
Duration : 1 h 24 min
Bit rate : 2 624 kb/s
Width : 1 024 pixels
Height : 576 pixels
Display aspect ratio : 16:9
Frame rate mode : Constant
Frame rate : 23.976 (24000/1001) FPS
Color space : YUV
Chroma subsampling : 4:2:0
Bit depth : 8 bits
Scan type : Progressive
Bits/(Pixel*Frame) : 0.186
Stream size : 1.56 GiB (76%)
Title : .[wolf1245.MediaBit]
Writing library : x264 core 157 r2958 57baac4
Encoding settings : cabac=1 / ref=14 / deblock=1:-3:-3 / analyse=0x3:0x133 / me=umh / subme=11 / psy=1 / psy_rd=1.00:0.07 / mixed_ref=1 / me_range=48 / chroma_me=1 / trellis=2 / 8x8dct=1 / cqm=0 / deadzone=21,11 / fast_pskip=1 / chroma_qp_offset=-3 / threads=10 / lookahead_threads=2 / sliced_threads=0 / nr=0 / decimate=1 / interlaced=0 / bluray_compat=0 / constrained_intra=0 / bframes=12 / b_pyramid=2 / b_adapt=2 / b_bias=0 / direct=3 / weightb=1 / open_gop=0 / weightp=2 / keyint=240 / keyint_min=24 / scenecut=40 / intra_refresh=0 / rc_lookahead=60 / rc=2pass / mbtree=1 / bitrate=2624 / ratetol=1.0 / qcomp=0.60 / qpmin=0 / qpmax=69 / qpstep=4 / cplxblur=20.0 / qblur=0.5 / vbv_maxrate=50000 / vbv_bufsize=62500 / nal_hrd=none / filler=0 / ip_ratio=1.40 / aq=1:0.80
Language : English
Default : Yes
Forced : No
Audio #1
ID : 2
Format : AC-3
Format/Info : Audio Coding 3
Commercial name : Dolby Digital
Codec ID : A_AC3
Duration : 1 h 24 min
Bit rate mode : Constant
Bit rate : 384 kb/s
Channel(s) : 6 channels
Channel layout : L R C LFE Ls Rs
Sampling rate : 48.0 kHz
Frame rate : 31.250 FPS (1536 SPF)
Bit depth : 16 bits
Compression mode : Lossy
Stream size : 233 MiB (11%)
Title : MVO | iTunes
Language : Russian
Service kind : Complete Main
Default : Yes
Forced : No
Audio #2
ID : 3
Format : AC-3
Format/Info : Audio Coding 3
Commercial name : Dolby Digital
Codec ID : A_AC3
Duration : 1 h 24 min
Bit rate mode : Constant
Bit rate : 448 kb/s
Channel(s) : 6 channels
Channel layout : L R C LFE Ls Rs
Sampling rate : 48.0 kHz
Frame rate : 31.250 FPS (1536 SPF)
Bit depth : 16 bits
Compression mode : Lossy
Stream size : 272 MiB (13%)
Title : Original
Language : English
Service kind : Complete Main
Default : No
Forced : No
Text #1
ID : 4
Format : UTF-8
Codec ID : S_TEXT/UTF8
Codec ID/Info : UTF-8 Plain Text
Duration : 1 h 21 min
Bit rate : 54 b/s
Count of elements : 779
Stream size : 32.4 KiB (0%)
Title : Full [MENINSUB]
Language : Russian
Default : No
Forced : No
Text #2
ID : 5
Format : UTF-8
Codec ID : S_TEXT/UTF8
Codec ID/Info : UTF-8 Plain Text
Duration : 1 h 24 min
Bit rate : 54 b/s
Count of elements : 766
Stream size : 33.9 KiB (0%)
Title : Full [StasSlender]
Language : Russian
Default : No
Forced : No
Text #3
ID : 6
Format : UTF-8
Codec ID : S_TEXT/UTF8
Codec ID/Info : UTF-8 Plain Text
Duration : 1 h 21 min
Bit rate : 35 b/s
Count of elements : 781
Stream size : 21.0 KiB (0%)
Title : Full
Language : English
Default : No
Forced : No
Text #4
ID : 7
Format : UTF-8
Codec ID : S_TEXT/UTF8
Codec ID/Info : UTF-8 Plain Text
Duration : 1 h 22 min
Bit rate : 43 b/s
Count of elements : 968
Stream size : 25.9 KiB (0%)
Title : SDH
Language : English
Default : No
Forced : No
Menu
00:00:00.000 : :Глава 01
00:07:02.505 : :Глава 02
00:13:04.742 : :Глава 03
00:20:50.833 : :Глава 04
00:28:10.689 : :Глава 05
00:33:44.773 : :Глава 06
00:40:34.265 : :Глава 07
00:47:17.585 : :Глава 08
00:56:25.132 : :Глава 09
01:02:32.999 : :Глава 10
01:12:28.970 : :Глава 11
01:20:32.286 : :Глава 12
Релиз от: &
Автор релиза:
piratbit.org



Скачать Она умрёт завтра через торрент https://i115.fastpic.ru/big/2021/0715/85/12cdb054a03dec080d72c36431113285.jpg Скачать фильм Она умрёт завтра через торрент бесплантно в хорошем качестве Описание: Эми уверена, что завтра умрёт. Она напивается и говорит подруге Джейн, чтобы после смерти та сделала из её кожи куртку. Джейн ... 10 10 3
Торрент: Зарегистрирован [2021-07-15 17:12] · скачан: 61 раз
Статус: √ проверено
Размер: 2.05 GB
Как cкачать? Как скачать Она умрёт завтра через торрент | UTorrent

28-11-2019 20:33  

Отключить всю рекламу на сайте

    Дорогой пользователь! Огромная просьба, поблагодарите релизера, оцените раздачу и оставьте свои комментарий, если Вы скачали Она умрёт завтра через торрент бесплатно! Внесите свою лепту в развитие PiratBit!
    Комментировать посты могут только пользователи прошедшие не сложную регистрацию
    Показать сообщения:    

    Она умрёт завтра через торрент
    Скачать бесплатно Она умрёт завтра
    Она умрёт завтра скачать торрент
    Она умрёт завтра смотреть онлайн
    Cкачать фильм Она умрёт завтра бесплатно
    Она умрёт завтра скачать торрент в хорошем качестве
    Она умрёт завтра смотреть онлайн бесплатно в хорошем качестве


    Вы не можете начинать темы
    Вы не можете отвечать на сообщения
    Вы не можете редактировать свои сообщения
    Вы не можете удалять свои сообщения
    Вы не можете голосовать в опросах
    Вы не можете прикреплять файлы к сообщениям
    Вы можете скачивать файлы