1 сезон

3 сезон

iTunes

1

iTunes

MVO

iTunes

13

1 сезон

RePack

30

Deluxe

pack

Лицензия

ВАЖНО

ИГРА 18+

pack

RePack

MK11

RePack

jed

RePack

fifa19

RePack

RDR2

RePack

NEED FOR SPEED™ PAYBACK

4 сезон

9 сезон

Бесстыжие 9 сезон

Все сериалы

все сериалы на PB.wtf

RePack

FAR CRY 5

Anonymous, доброе утро, мы катастрофически не успеваем собрать деньги на оплату серверов, помогите нам пожалуйста 5,10,15р., для нас важна любая помощь . В качестве благодарности мы отключим Вам всю рекламу на сайте (укажите свой ник в строку Ваше имя)!

×
  
Magnet ссылка

Волшебный дракон / Wish Dragon (Крис Аппельханс) [2021, мультфильм, фэнтези, комедия, приключения, WEB-DL 1080p] [Dub] (IYUNO SDI RU по заказу Netflix) piratbit.org

Волшебный дракон через торрент piratbit.org

Раздают: 21 [ 152 KB/s ]
Размер: 2.89 GB | Добавлен: 6 д. назад | Торрент скачан:177 раз
Скачать  

17-07-2021 17:50 Волшебный дракон Скачать торрент  

Волшебный дракон / Wish Dragon
Год выпуска: 2021
Страна: Китай, США, Гонконг
Жанр: мультфильм, фэнтези, комедия, приключения
Продолжительность: 01:42:23
Перевод: Профессиональный (дублированный) - IYUNO SDI RU по заказу Netflix
Режиссёр: Крис Аппельханс
Роли озвучивали: Джон Чо, Джимми Вонг, Наташа Лю Бордиццо, Констанс Ву, Уилл Юн Ли, Бобби Ли, Джимми О. Ян, Иэн Чен, Макс Чарльз, Александр Чен
Описание: Обычный парень случайно высвобождает из чайника розового дракона, исполняющего желания. Дракон много веков просидел в заточении, и теперь ему ужасно интересно, как за это время изменился мир.
rating
Семпл: http://multi-up.com/1280861
Качество: WEB-DL 1080p
Формат: MKV
Видео: AVC, 1920x1080, (16:9), 2511 kbps, 23.976 fps, 0.051 bit/pixel
Аудио 1: EAC3 Dolby Digital, 3/2 (L,C,R,l,r) + LFE ch, 48.0 KHz, 640 Kbps
Аудио 2: AC3 Dolby Digital, 3/2 (L,C,R,l,r) + LFE ch, 48.0 KHz, 768 Kbps
Субтитры: русские, английские (в составе контейнера)
General

Format : Matroska
Format version : Version 4 / Version 2
File size : 2.89 GiB
Duration : 1 h 42 min
Overall bit rate mode : Variable
Overall bit rate : 4 043 kb/s
Encoded date : UTC 2021-06-11 19:59:41
Writing application : mkvmerge v57.0.0 ('Till The End') 64-bit
Writing library : libebml v1.4.2 + libmatroska v1.6.4
Video #1
ID : 1
Format : AVC
Format/Info : Advanced Video Codec
Format profile : Main@L4
Format settings : CABAC / 3 Ref Frames
Format settings, CABAC : Yes
Format settings, ReFrames : 3 frames
Codec ID : V_MPEG4/ISO/AVC
Duration : 1 h 42 min
Bit rate mode : Variable
Bit rate : 2 511 kb/s
Maximum bit rate : 5 475 kb/s
Width : 1 920 pixels
Height : 1 080 pixels
Display aspect ratio : 16:9
Frame rate mode : Constant
Frame rate : 23.976 (24000/1001) FPS
Color space : YUV
Chroma subsampling : 4:2:0
Bit depth : 8 bits
Scan type : Progressive
Bits/(Pixel*Frame) : 0.051
Stream size : 1.88 GiB (65%)
Writing library : x264 core 148 r2722 1b0121b
Encoding settings : cabac=1 / ref=3 / deblock=1:0:0 / analyse=0x1:0x111 / me=umh / subme=10 / psy=1 / psy_rd=1.00:0.00 / mixed_ref=1 / me_range=24 / chroma_me=1 / trellis=2 / 8x8dct=0 / cqm=0 / deadzone=21,11 / fast_pskip=1 / chroma_qp_offset=-2 / threads=8 / lookahead_threads=1 / sliced_threads=0 / nr=0 / decimate=1 / interlaced=0 / bluray_compat=0 / stitchable=1 / constrained_intra=0 / bframes=2 / b_pyramid=0 / b_adapt=2 / b_bias=0 / direct=3 / weightb=1 / open_gop=0 / weightp=2 / keyint=250 / keyint_min=23 / scenecut=0 / intra_refresh=0 / rc_lookahead=48 / rc=2pass / mbtree=1 / bitrate=2511 / ratetol=1.0 / qcomp=0.50 / qpmin=6 / qpmax=51 / qpstep=4 / cplxblur=20.0 / qblur=0.5 / vbv_maxrate=5475 / vbv_bufsize=7300 / nal_hrd=vbr / filler=0 / ip_ratio=1.40 / aq=1:1.00
Language : English
Default : Yes
Forced : No
Audio #2
ID : 2
Format : E-AC-3
Format/Info : Enhanced Audio Coding 3
Codec ID : A_EAC3
Duration : 1 h 42 min
Bit rate mode : Constant
Bit rate : 640 kb/s
Channel(s) : 6 channels
Channel positions : Front: L C R, Side: L R, LFE
Sampling rate : 48.0 kHz
Frame rate : 187.500 FPS (256 SPF)
Compression mode : Lossy
Stream size : 469 MiB (16%)
Language : Russian
Service kind : Complete Main
Default : Yes
Forced : No
Audio #3
ID : 3
Format : E-AC-3
Format/Info : Enhanced Audio Coding 3
Format profile : E-AC-3+Atmos / E-AC-3
Codec ID : A_EAC3
Duration : 1 h 42 min
Bit rate mode : Constant
Bit rate : 768 kb/s
Channel(s) : 15 objects / 6 channels
Channel positions : 15 objects / Front: L C R, Side: L R, LFE
Sampling rate : 48.0 kHz
Frame rate : 187.500 FPS (256 SPF)
Compression mode : Lossy
Stream size : 562 MiB (19%)
Language : English
Service kind : Complete Main
Default : No
Forced : No
Text #4
ID : 4
Format : UTF-8
Codec ID : S_TEXT/UTF8
Codec ID/Info : UTF-8 Plain Text
Duration : 1 h 32 min
Bit rate : 69 b/s
Count of elements : 1583
Stream size : 47.2 KiB (0%)
Title : English (SDH)
Language : English
Default : No
Forced : No
Text #5
ID : 5
Format : UTF-8
Codec ID : S_TEXT/UTF8
Codec ID/Info : UTF-8 Plain Text
Duration : 1 h 37 min
Bit rate : 81 b/s
Count of elements : 1176
Stream size : 57.9 KiB (0%)
Title : Russian
Language : Russian
Default : No
Forced : No
скриншот  скриншот  скриншот  
piratbit.org



Скачать Волшебный дракон через торрент https://i115.fastpic.ru/big/2021/0710/75/ceb89bdc96a07866ccf63fd06c335b75.jpg Скачать фильм Волшебный дракон через торрент бесплантно в хорошем качестве Описание: Обычный парень случайно высвобождает из чайника розового дракона, исполняющего желания. Дракон много веков просидел в заточении, ... 10 10 7
Торрент: Зарегистрирован [2021-07-17 17:50] · скачан: 177 раз
Статус: √ проверено
Размер: 2.89 GB
Как cкачать? Как скачать Волшебный дракон через торрент | UTorrent

% Раздел Тема Автор DL S | L
Иностранные мультфильмы [ 1.46 GB ] Волшебный дракон / Дракон желаний / Wish Dragon [2021 мультфильм полнометражный WEB-DLRip] - [IYUNO SDI RU / Netflix] Twi7ter Скачать
41 | 0
Иностранные мультфильмы [ 1.44 GB ] Волшебный дракон / Дракон желаний / Wish Dragon [2021 мультфильм полнометражный WEB-DLRip-AVC] [Netflix] от MediaBit Lithuania Скачать
2 | 0

28-11-2019 20:33  

Отключить всю рекламу на сайте

    Дорогой пользователь! Огромная просьба, поблагодарите релизера, оцените раздачу и оставьте свои комментарий, если Вы скачали Волшебный дракон через торрент бесплатно! Внесите свою лепту в развитие PiratBit!
    Комментировать посты могут только пользователи прошедшие не сложную регистрацию
    Показать сообщения:    

    Волшебный дракон через торрент
    Скачать бесплатно Волшебный дракон
    Волшебный дракон скачать торрент
    Волшебный дракон смотреть онлайн
    Cкачать фильм Волшебный дракон бесплатно
    Волшебный дракон скачать торрент в хорошем качестве
    Волшебный дракон смотреть онлайн бесплатно в хорошем качестве


    Вы не можете начинать темы
    Вы не можете отвечать на сообщения
    Вы не можете редактировать свои сообщения
    Вы не можете удалять свои сообщения
    Вы не можете голосовать в опросах
    Вы не можете прикреплять файлы к сообщениям
    Вы можете скачивать файлы