>

5.6

iTunes

6.1

MVO

5.7

MVO

1

7.4

1 сезон

6.8

iTunes

7.2

1 сезон

13

6.7

1 сезон

8.3

RePack

30

Deluxe

pack

9.9

Лицензия

ВАЖНО

ИГРА 18+

pack

7.3

RePack

MK11

7.7

RePack

jed

7.8

RePack

fifa19

8.5

RePack

RDR2

RePack

NEED FOR SPEED™ PAYBACK

4 сезон

9 сезон

Бесстыжие 9 сезон

Все сериалы

все сериалы на PB.wtf

RePack

FAR CRY 5

Anonymous, добрый вечер, мы катастрофически не успеваем собрать деньги на оплату серверов, помогите нам пожалуйста 5,10,15р., для нас важна любая помощь . В качестве благодарности мы отключим Вам всю рекламу на сайте (укажите свой ник в строку Ваше имя)!

×
  
Magnet ссылка

По ком звонит колокол / For Whom the Bell Tolls (Сэм Вуд) [1943, драма, мелодрама, история, HDRip-AVC] [MVO] piratbit.org

По ком звонит колокол через торрент piratbit.org

Размер: 2.91 GB | Добавлен: 2 мес. 7 д. назад | Торрент скачан:3 раза
Смотреть онлайн По ком звонит колокол | Скачать    Ребята, помогите собрать деньги на оплату серверов!!!

17-07-2021 19:32 По ком звонит колокол Скачать торрент  

По ком звонит колокол / For Whom the Bell Tolls

Год выпуска: 1943
Страна: США
Студия: Paramount Pictures
Жанр: драма, мелодрама, история
Продолжительность: 02:45:30
Перевод: Профессиональный (многоголосый закадровый)
Субтитры: английские

Режиссер: Сэм Вуд / Sam Wood

В ролях: Ингрид Бергман, Гэри Купер, Аким Тамирофф, Артуро де Кордова, Владимир Соколов, Михаил Разумный, Фортунио Бонанова, Эрик Фелдари, Виктор Варкони, Катина Паксино

Описание: 1930-ые годы, разгар Гражданской войны в Испании. Американец Роберт Джордан прибывает в партизанский отряд, во главе которого стоит Пабло и его жена Пилар. Там он встречает девушку Марию и в её лице находит любовь всей жизни. Сможет ли Джордан выполнить наложенную на него миссию и спасти свое чувство?
rating

Качество видео: HDRip-AVC (For.Whom.the.Bell.Tolls.1943.1080p.BluRay.X264-AMIABLE)
Формат видео: MKV

Видео: AVC / 880x648 / 1.36:1 / 23.976fps / Bit rate 2100Kbps / b/p 0.154
Аудио 1: AC3 / 48.0KHz / 2ch. / 192kbps / rus / mvo
Аудио 2: AC3 / 48.0KHz / 2ch. / 224kbps / eng
Формат субтитров: softsub (SRT)
Общее
Уникальный идентификатор : 202688659550469571460992667464276949154 (0x987C6A77375D80CCA2871EAA1FE0B8A2)
Полное имя : D:\torrent\For.Whom.the.Bell.Tolls.1943.HDRip-AVC_by_vedigo.mkv
Формат : Matroska
Версия формата : Version 4 / Version 2
Размер файла : 2,91 Гбайт
Продолжительность : 2 ч. 45 м.
Общий поток : 2518 Кбит/сек
Дата кодирования : UTC 2015-07-12 11:59:17
Программа кодирования : mkvmerge v8.1.0 ('Psychedelic Postcard') 64bit
Библиотека кодирования : libebml v1.3.1 + libmatroska v1.4.2
DURATION : 02:37:26.269000000
NUMBER_OF_FRAMES : 1407
NUMBER_OF_BYTES : 58447
_STATISTICS_WRITING_APP : mkvmerge v8.1.0 ('Psychedelic Postcard') 64bit
_STATISTICS_WRITING_DATE_UTC : 2015-07-12 11:59:17
_STATISTICS_TAGS : BPS DURATION NUMBER_OF_FRAMES NUMBER_OF_BYTES

Видео
Идентификатор : 1
Формат : AVC
Формат/Информация : Advanced Video Codec
Профиль формата : High@L4.1
Параметр CABAC формата : Да
Параметр ReFrames формата : 14 кадров
Идентификатор кодека : V_MPEG4/ISO/AVC
Продолжительность : 2 ч. 45 м.
Битрейт : 2100 Кбит/сек
Ширина : 880 пикселей
Высота : 648 пикселей
Соотношение сторон : 4:3
Режим частоты кадров : Постоянный
Частота кадров : 23,976 кадра/сек
Цветовое пространство : YUV
Субдискретизация насыщенности : 4:2:0
Битовая глубина : 8 бит
Тип развёртки : Прогрессивная
Бит/(Пиксели*Кадры) : 0.154
Размер потока : 2,37 Гбайт (81%)
Заголовок : For.Whom.the.Bell.Tolls.1943.HDRip-AVC_by_vedigo
Библиотека кодирования : x264 core 146 r2538 121396c
Настройки программы : cabac=1 / ref=14 / deblock=1:-3:-3 / analyse=0x3:0x133 / me=umh / subme=11 / psy=1 / psy_rd=1.00:0.10 / mixed_ref=1 / me_range=36 / chroma_me=1 / trellis=2 / 8x8dct=1 / cqm=0 / deadzone=21,11 / fast_pskip=0 / chroma_qp_offset=-3 / threads=12 / lookahead_threads=3 / sliced_threads=0 / nr=0 / decimate=1 / interlaced=0 / bluray_compat=0 / constrained_intra=0 / bframes=10 / b_pyramid=2 / b_adapt=2 / b_bias=0 / direct=3 / weightb=1 / open_gop=0 / weightp=2 / keyint=250 / keyint_min=23 / scenecut=40 / intra_refresh=0 / rc_lookahead=40 / rc=2pass / mbtree=0 / bitrate=2100 / ratetol=1.0 / qcomp=0.60 / qpmin=0 / qpmax=69 / qpstep=4 / cplxblur=20.0 / qblur=0.5 / vbv_maxrate=50000 / vbv_bufsize=62500 / nal_hrd=none / filler=0 / ip_ratio=1.40 / pb_ratio=1.30 / aq=1:1.00
Default : Да
Forced : Нет
DURATION : 02:45:30.171000000
NUMBER_OF_FRAMES : 238086
NUMBER_OF_BYTES : 2606772161
_STATISTICS_WRITING_APP : mkvmerge v8.1.0 ('Psychedelic Postcard') 64bit
_STATISTICS_WRITING_DATE_UTC : 2015-07-12 11:59:17
_STATISTICS_TAGS : BPS DURATION NUMBER_OF_FRAMES NUMBER_OF_BYTES

Аудио #1
Идентификатор : 2
Формат : AC-3
Формат/Информация : Audio Coding 3
Расширение режима : CM (complete main)
Параметр Endianness формата : Big
Идентификатор кодека : A_AC3
Продолжительность : 2 ч. 45 м.
Вид битрейта : Постоянный
Битрейт : 192 Кбит/сек
Каналы : 2 канала
Расположение каналов : Front: L R
Частота : 48,0 КГц
Метод сжатия : С потерями
Размер потока : 227 Мбайт (8%)
Заголовок : mvo @ AC3, 2ch
Язык : Russian
Default : Да
Forced : Нет

Аудио #2
Идентификатор : 3
Формат : AC-3
Формат/Информация : Audio Coding 3
Расширение режима : CM (complete main)
Параметр Endianness формата : Big
Идентификатор кодека : A_AC3
Продолжительность : 2 ч. 45 м.
Вид битрейта : Постоянный
Битрейт : 224 Кбит/сек
Каналы : 2 канала
Расположение каналов : Front: L R
Частота : 48,0 КГц
Метод сжатия : С потерями
Размер потока : 265 Мбайт (9%)
Заголовок : original @ AC3, 2ch
Язык : English
Default : Нет
Forced : Нет

Текст
Идентификатор : 4
Формат : UTF-8
Идентификатор кодека : S_TEXT/UTF8
Идентификатор кодека/Информация : UTF-8 Plain Text
Заголовок : subtitle eng
Язык : English
Default : Нет
Forced : Нет
скриншот  скриншот  скриншот  
piratbit.org



Скачать По ком звонит колокол через торрент http://i67.fastpic.ru/big/2014/1124/4a/d0f837d6c6a28b6fcf672def9f7ef54a.jpg Скачать, смотреть онлайн По ком звонит колокол бесплантно в хорошем качестве Описание: 1930-ые годы, разгар Гражданской войны в Испании. Американец Роберт Джордан прибывает в партизанский отряд, во главе которого ... 10 10 2
Торрент: Зарегистрирован [2021-07-17 19:32] · скачан: 3 раз
Статус: √ проверено
Размер: 2.91 GB
Как cкачать? Как скачать По ком звонит колокол через торрент | UTorrent

% Раздел Тема Автор DL S | L
Классика зарубежного кино [ 25.04 GB ] По ком звонит колокол / For Whom the Bell Tolls [1943 исторический BDRemux 1080p] [MVO] + 2x[DVO] killermax2013 Скачать
1 | 0

28-11-2019 20:33  

Отключить всю рекламу на сайте

    Дорогой пользователь! Огромная просьба, поблагодарите релизера, оцените раздачу и оставьте свои комментарий, если Вы скачали По ком звонит колокол через торрент бесплатно!
    Комментировать посты могут только пользователи прошедшие не сложную регистрацию
    Показать сообщения:    

    По ком звонит колокол через торрент
    Скачать бесплатно По ком звонит колокол
    По ком звонит колокол скачать торрент
    По ком звонит колокол смотреть онлайн
    Cкачать фильм По ком звонит колокол бесплатно
    По ком звонит колокол скачать торрент в хорошем качестве
    По ком звонит колокол смотреть онлайн бесплатно в хорошем качестве


    Вы не можете начинать темы
    Вы не можете отвечать на сообщения
    Вы не можете редактировать свои сообщения
    Вы не можете удалять свои сообщения
    Вы не можете голосовать в опросах
    Вы не можете прикреплять файлы к сообщениям
    Вы можете скачивать файлы