1 сезон

3 сезон

iTunes

1

iTunes

MVO

iTunes

13

1 сезон

RePack

30

Deluxe

pack

Лицензия

ВАЖНО

ИГРА 18+

pack

RePack

MK11

RePack

jed

RePack

fifa19

RePack

RDR2

RePack

NEED FOR SPEED™ PAYBACK

4 сезон

9 сезон

Бесстыжие 9 сезон

Все сериалы

все сериалы на PB.wtf

RePack

FAR CRY 5

Anonymous, доброй ночи, мы катастрофически не успеваем собрать деньги на оплату серверов, помогите нам пожалуйста 5,10,15р., для нас важна любая помощь . В качестве благодарности мы отключим Вам всю рекламу на сайте (укажите свой ник в строку Ваше имя)!

×
  
Magnet ссылка

Толмен. Первый демон / Толмен. Демон леса / The Toll (Майкл Нэйдер) [2019, Ужасы, BDRip 720p] [DUB] [iTunes] piratbit.org

Толмен. Первый демон через торрент piratbit.org

Раздают: 9 [ 0 KB/s ]
Размер: 4.12 GB | Добавлен: 5 д. назад | Торрент скачан:109 раз
Скачать  

18-07-2021 06:40 Толмен. Первый демон Скачать торрент  

Толмен. Первый демон / Толмен. Демон леса / The Toll Год выхода: 2019
Жанр: Ужасы
Страна: Канада
Студия: 4 AM Films, Always Hungry Productions
Продолжительность: 01:20:52
Перевод: Дублированный | iTunes

Режиссер: Майкл Нэйдер

В ролях: Джордан Хэйес, Макс Топплин, Джеймс Макгоун, Розмари Дансмор, Томас Л. Колфорд, Шэрон МакФарлэйн, Яна Пек, Джесс Браун, Шон Грегори Салливан, Энтони Юлк

О фильме: Кэми направляется в гости к отцу и, устав после изнурительного перелёта, вызывает такси. Водитель сразу кажется ей подозрительным и неприятным, а когда он сворачивает на лесную дорогу, тревога девушки только усиливается. Внезапно машина глохнет. Думая, что таксист всё это подстроил, Кэми решает вернуться на привычный маршрут пешком, но не тут-то было. Каким-то образом она приходит к машине с другой стороны, и теперь им с перепуганным таксистом кажется, что за ними кто-то следит.

rating

Качество: BDRip 720p
Формат MKV
Видео: MPEG-4 AVC, 1280x538, 6261 Kbit/s, 23.976 fps
Аудио #01: 48 kHz, AC3, 5.1, 384 Kbps | iTunes | RUS |
Аудио #02: 48 kHz, AC3, 5.1, 640 Kbps | Оригинал | ENG |
Субтитры: Английские
General

Unique ID : 46876947578905425984389068509068307666 (0x23442BF4D147286ADB9031FE1D4EACD2)

Complete name : G:VideoThe.Toll.2020.BDRip.720p.seleZen.mkv

Format : Matroska

Format version : Version 4

File size : 4.12 GiB

Duration : 1 h 20 min

Overall bit rate : 7 287 kb/s

Movie name : The Toll 2020 from seleZen

Encoded date : UTC 2021-07-17 22:55:19

Writing application : mkvmerge v53.0.0 ('Fool's Gold') 64-bit

Writing library : libebml v1.4.1 + libmatroska v1.6.2

Video

ID : 1

Format : AVC

Format/Info : Advanced Video Codec

Format profile : High@L4.1

Format settings : CABAC / 12 Ref Frames

Format settings, CABAC : Yes

Format settings, Reference : 12 frames

Codec ID : V_MPEG4/ISO/AVC

Duration : 1 h 20 min

Bit rate : 6 261 kb/s

Width : 1 280 pixels

Height : 538 pixels

Display aspect ratio : 2.40:1

Frame rate mode : Constant

Frame rate : 23.976 (24000/1001) FPS

Color space : YUV

Chroma subsampling : 4:2:0

Bit depth : 8 bits

Scan type : Progressive

Bits/(Pixel*Frame) : 0.379

Stream size : 3.54 GiB (86%)

Title : playHD

Writing library : x264 core 160 r3000+53 e3e4c3e t_mod_New [(8 & 10)-bit@all X86_64]

Encoding settings : cabac=1 / ref=12 / deblock=1:-3:-3 / analyse=0x3:0x133 / me=umh / subme=10 / psy=1 / fade_compensate=0.00 / psy_rd=1.00:0.00 / mixed_ref=1 / me_range=32 / chroma_me=1 / trellis=2 / 8x8dct=1 / cqm=0 / deadzone=21,11 / fast_pskip=0 / chroma_qp_offset=-2 / threads=24 / lookahead_threads=4 / sliced_threads=0 / nr=0 / decimate=0 / interlaced=0 / bluray_compat=0 / constrained_intra=0 / fgo=0 / bframes=8 / b_pyramid=2 / b_adapt=2 / b_bias=0 / direct=3 / weightb=1 / open_gop=0 / weightp=2 / keyint=250 / keyint_min=23 / scenecut=40 / intra_refresh=0 / rc=crf / mbtree=0 / crf=17.0000 / qcomp=0.60 / qpmin=0:0:0 / qpmax=69:69:69 / qpstep=4 / ip_ratio=1.30 / pb_ratio=1.20 / aq=3:0.85 / aq-sensitivity=10.00 / aq-factor=1.00:1.00:1.00 / aq2=0 / aq3=0

Language : English

Default : Yes

Forced : No

Audio #1

ID : 2

Format : AC-3

Format/Info : Audio Coding 3

Commercial name : Dolby Digital

Codec ID : A_AC3

Duration : 1 h 20 min

Bit rate mode : Constant

Bit rate : 384 kb/s

Channel(s) : 6 channels

Channel layout : L R C LFE Ls Rs

Sampling rate : 48.0 kHz

Frame rate : 31.250 FPS (1536 SPF)

Compression mode : Lossy

Stream size : 222 MiB (5%)

Title : iTunes

Language : Russian

Service kind : Complete Main

Default : Yes

Forced : Yes

Audio #2

ID : 3

Format : AC-3

Format/Info : Audio Coding 3

Commercial name : Dolby Digital

Codec ID : A_AC3

Duration : 1 h 20 min

Bit rate mode : Constant

Bit rate : 640 kb/s

Channel(s) : 6 channels

Channel layout : L R C LFE Ls Rs

Sampling rate : 48.0 kHz

Frame rate : 31.250 FPS (1536 SPF)

Compression mode : Lossy

Stream size : 370 MiB (9%)

Title : Original

Language : English

Service kind : Complete Main

Default : No

Forced : No

Text

ID : 4

Format : UTF-8

Codec ID : S_TEXT/UTF8

Codec ID/Info : UTF-8 Plain Text

Duration : 1 h 14 min

Bit rate : 46 b/s

Count of elements : 937

Stream size : 25.3 KiB (0%)

Language : English

Default : No

Forced : No

Menu

00:00:00.000 : :Chapter 01

00:04:13.545 : :Chapter 02

00:07:35.372 : :Chapter 03

00:12:34.545 : :Chapter 04

00:17:01.604 : :Chapter 05

00:20:47.788 : :Chapter 06

00:26:08.901 : :Chapter 07

00:29:02.908 : :Chapter 08

00:36:34.651 : :Chapter 09

00:41:29.237 : :Chapter 10

00:44:46.183 : :Chapter 11

00:49:15.244 : :Chapter 12

00:54:55.292 : :Chapter 13

01:00:15.612 : :Chapter 14

01:05:43.940 : :Chapter 15

01:13:30.531 : :Chapter 16
Релиз:

piratbit.org



Скачать Толмен. Первый демон через торрент https://i115.fastpic.ru/big/2021/0718/7a/0fe1cccd13f365b89963c9b835ccff7a.jpg Скачать фильм Толмен. Первый демон через торрент бесплантно в хорошем качестве О фильме: Кэми направляется в гости к отцу и, устав после изнурительного перелёта, вызывает такси. Водитель сразу кажется ей подозрительным ... 10 10 5
Info! Золотая раздача, скачанное не засчитывается.
Торрент: Зарегистрирован [2021-07-18 06:40] · скачан: 109 раз
Статус: √ проверено
Размер: 4.12 GB
Как cкачать? Как скачать Толмен. Первый демон через торрент | UTorrent

% Раздел Тема Автор DL S | L
Фильмы 2019-2020 [DVDrip, WEB-DLRip, HDrip] (DUB, MVO) [ 705 MB ] Толмен. Первый демон / Толмен. Демон леса / The Toll [2019 HDRip ] coc900 Скачать
6 | 0
Фильмы (Blu-ray, BD-Remux, HDDVD) [ 18.13 GB ] Толмен. Первый демон / Толмен. Демон леса / The Toll [2020 BD Remux 1080p] bober100 Скачать
1 | 0
Фильмы [HD 720p, 1080p] (Хороший звук DUB, MVO) [ 8.79 GB ] Толмен. Первый демон / Толмен. Демон леса / The Toll [2020 BDRip 1080p] bober100 Скачать
10 | 0
Фильмы 2019-2020 [DVDrip, WEB-DLRip, HDrip] (DUB, MVO) [ 1.45 GB ] Толмен. Первый демон / Толмен. Демон леса / The Toll [2019 HDRip-AVC] от MediaBit Lithuania Скачать
11 | 0


Последний раз редактировалось: killermax2013 (2021-07-18 13:59), всего редактировалось 1 раз

28-11-2019 20:33  

Отключить всю рекламу на сайте

18-07-2021 12:05 Толмен. Первый демон Скачать торрент  

Цитата:

ТоликМэн / The Toll

Аффтар жжот piratbit.org



22-07-2021 18:49 Толмен. Первый демон Скачать торрент  

saw21 писал(а):

Цитата:

ТоликМэн / The Toll

Аффтар жжот

такой бред сняли piratbit.org



    Дорогой пользователь! Огромная просьба, поблагодарите релизера, оцените раздачу и оставьте свои комментарий, если Вы скачали Толмен. Первый демон через торрент бесплатно! Внесите свою лепту в развитие PiratBit!
    Комментировать посты могут только пользователи прошедшие не сложную регистрацию
    Показать сообщения:    

    Толмен. Первый демон через торрент
    Скачать бесплатно Толмен. Первый демон
    Толмен. Первый демон скачать торрент
    Толмен. Первый демон смотреть онлайн
    Cкачать фильм Толмен. Первый демон бесплатно
    Толмен. Первый демон скачать торрент в хорошем качестве
    Толмен. Первый демон смотреть онлайн бесплатно в хорошем качестве


    Вы не можете начинать темы
    Вы не можете отвечать на сообщения
    Вы не можете редактировать свои сообщения
    Вы не можете удалять свои сообщения
    Вы не можете голосовать в опросах
    Вы не можете прикреплять файлы к сообщениям
    Вы можете скачивать файлы