1 сезон

3 сезон

iTunes

1

iTunes

MVO

iTunes

13

1 сезон

RePack

30

Deluxe

pack

Лицензия

ВАЖНО

ИГРА 18+

pack

RePack

MK11

RePack

jed

RePack

fifa19

RePack

RDR2

RePack

NEED FOR SPEED™ PAYBACK

4 сезон

9 сезон

Бесстыжие 9 сезон

Все сериалы

все сериалы на PB.wtf

RePack

FAR CRY 5

Anonymous, доброе утро, мы катастрофически не успеваем собрать деньги на оплату серверов, помогите нам пожалуйста 5,10,15р., для нас важна любая помощь . В качестве благодарности мы отключим Вам всю рекламу на сайте (укажите свой ник в строку Ваше имя)!

×
  
Magnet ссылка

Ночная прогулка / Night Walk (Азиз Тази) [2019 г., боевик, криминал, WEB-DLRip, Дубляж "iTunes"] piratbit.org

Ночная прогулка через торрент piratbit.org

Раздают: 3 [ 0 KB/s ]
Размер: 717 MB | Добавлен: 4 д. назад | Торрент скачан:18 раз
Скачать  

19-07-2021 18:28 Ночная прогулка Скачать торрент  

Ночная прогулка / Night Walk
Год выпуска: 2019
Страна: США / Lena River productionsAlexander MediaOle Entertainment
Жанр: боевик, криминал
Продолжительность: 01:39:58
Перевод: Дубляж (iTunes)
«Вера - это единственное спасение»

Режиссер: Азиз Тази

rating

В ролях: Шон Стоун, Сара Алами, Микки Рурк, Эрик Робертс, Лауни Муид, Рикко Росс, Ричард Тайсон, Луис Мэндилор, Патрик Килпатрик, Джеймс Кох

Описание: Американец-атеист Фрэнк влюбился в арабскую девушку Сару и решил сделать ей предложение в ее родном городе. Однако коррумпированные исламские полицейские схватили влюблённых и потребовали взятку за то, чтобы выпустить их на свободу, убили Сару, а всю вину свалили на Фрэнка. В тюрьме Фрэнк проходит путь духовного перерождения под влиянием своего сокамерника-мусульманина. Когда его друга убивают как возможного свидетеля преступления судьи, Фрэнку приходится бежать, чтобы не стать следующей жертвой.

Качество: WEB-DLRip
Формат: AVI
Видео кодек: DivX
Аудио кодек: MP3
Видео: 640x272 (2.35:1), 23.976 fps, DivX Codec 4.x ~865 kbps avg, 0.21 bit/pixel
Аудио: 48 kHz, MPEG Layer 3, 2 ch, ~128.00 kbps avg








Общее
Полное имя : G:\ФИЛЬМЫ\Ночная прогулка.2019.D.WEB-DLRip.avi
Формат : AVI
Формат/Информация : Audio Video Interleave
Размер файла : 717 Мбайт
Продолжительность : 1 ч. 39 м.
Общий поток : 1 003 Кбит/сек
Программа кодирования : VirtualDubMod 1.5.10.3 | www.virtualdub-fr.org || (build 2550/release)
Библиотека кодирования : VirtualDubMod build 2550/release

Видео
Идентификатор : 0
Формат : MPEG-4 Visual
Профиль формата : Advanced Simple@L5
Настройки формата : BVOP2
Параметр BVOP формата : 2
Параметр QPel формата : Нет
Параметр GMC формата : Без точки перехода
Параметр матрицы формата : Default (MPEG)
Идентификатор кодека : DIVX
Идентификатор кодека/Информация : Project Mayo
Идентификатор кодека/Подсказка : DivX 4
Продолжительность : 1 ч. 39 м.
Битрейт : 866 Кбит/сек
Ширина : 640 пикселей
Высота : 272 пикселя
Соотношение сторон : 2,35:1
Частота кадров : 23,976 (24000/1001) кадра/сек
Цветовое пространство : YUV
Субдискретизация насыщенности : 4:2:0
Битовая глубина : 8 бит
Тип развёртки : Прогрессивная
Метод сжатия : С потерями
Бит/(Пиксели*Кадры) : 0.207
Размер потока : 619 Мбайт (86%)
Библиотека кодирования : XviD 1.2.1 (UTC 2008-12-04)

Аудио
Идентификатор : 1
Формат : MPEG Audio
Версия формата : Version 1
Профиль формата : Layer 3
Настройки формата : Joint stereo / MS Stereo
Идентификатор кодека : 55
Идентификатор кодека/Подсказка : MP3
Продолжительность : 1 ч. 39 м.
Вид битрейта : Постоянный
Битрейт : 128 Кбит/сек
Каналы : 2 канала
Частота : 48,0 КГц
Частота кадров : 41,667 кадра/сек (1152 SPF)
Метод сжатия : С потерями
Размер потока : 91,5 Мбайт (13%)
Выравнивание : Соединение по промежуткам
Продолжительность промежутка : 42 мс. (1,00 видеокадр)
Время предзагрузки промежутка : 504 мс.
Библиотека кодирования : LAME3.99r
Настройки программы : -m j -V 4 -q 2 -lowpass 17 -b 128

Report created by : MediaInfoLib - v21.03
Report created on : UTC 2021-07-19 18:08:35

piratbit.org



Скачать Ночная прогулка через торрент https://pic1.kartinco.top/new/img/2021-07/19/vl91x95rxkycmcoy6pvhf9863.jpg Скачать фильм Ночная прогулка через торрент бесплантно в хорошем качестве Описание: Американец-атеист Фрэнк влюбился в арабскую девушку Сару и решил сделать ей предложение в ее родном городе. Однако ... 10 10 1
Торрент: Зарегистрирован [2021-07-19 18:28] · скачан: 18 раз
Статус: √ проверено
Размер: 717 MB
Как cкачать? Как скачать Ночная прогулка через торрент | UTorrent

% Раздел Тема Автор DL S | L
Фильмы (WEB-DL 720p, 1080p) [ 3.72 GB ] Ночная прогулка / Night Walk [2019 WEB-DL 1080p] bober100 Скачать
7 | 0
Фильмы 2019-2020 [DVDrip, WEB-DLRip, HDrip] (DUB, MVO) [ 1.46 GB ] Ночная прогулка / Night Walk [2019 WEB-DLRip] bober100 Скачать
7 | 0

28-11-2019 20:33  

Отключить всю рекламу на сайте


    Дорогой пользователь! Огромная просьба, поблагодарите релизера, оцените раздачу и оставьте свои комментарий, если Вы скачали Ночная прогулка через торрент бесплатно! Внесите свою лепту в развитие PiratBit!
    Комментировать посты могут только пользователи прошедшие не сложную регистрацию
    Показать сообщения:    

    Ночная прогулка через торрент
    Скачать бесплатно Ночная прогулка
    Ночная прогулка скачать торрент
    Ночная прогулка смотреть онлайн
    Cкачать фильм Ночная прогулка бесплатно
    Ночная прогулка скачать торрент в хорошем качестве
    Ночная прогулка смотреть онлайн бесплатно в хорошем качестве


    Вы не можете начинать темы
    Вы не можете отвечать на сообщения
    Вы не можете редактировать свои сообщения
    Вы не можете удалять свои сообщения
    Вы не можете голосовать в опросах
    Вы не можете прикреплять файлы к сообщениям
    Вы можете скачивать файлы