1 сезон

3 сезон

iTunes

1

iTunes

MVO

iTunes

13

1 сезон

RePack

30

Deluxe

pack

Лицензия

ВАЖНО

ИГРА 18+

pack

RePack

MK11

RePack

jed

RePack

fifa19

RePack

RDR2

RePack

NEED FOR SPEED™ PAYBACK

4 сезон

9 сезон

Бесстыжие 9 сезон

Все сериалы

все сериалы на PB.wtf

RePack

FAR CRY 5

Anonymous, доброе утро, мы катастрофически не успеваем собрать деньги на оплату серверов, помогите нам пожалуйста 5,10,15р., для нас важна любая помощь . В качестве благодарности мы отключим Вам всю рекламу на сайте (укажите свой ник в строку Ваше имя)!

×
  
Magnet ссылка

Одни дома / How to Deter a Robber (Мария Бисселл) [2020, Комедия, криминал, WEB-DLRip-AVC] MVO [iTunes] от MediaBit piratbit.org

Одни дома через торрент piratbit.org

Раздают: 7 [ 481 KB/s ]
Размер: 1.45 GB | Добавлен: 3 д. назад | Торрент скачан:74 раза
Скачать  

20-07-2021 16:32 Одни дома Скачать торрент  


Одни дома / How to Deter a Robber
Информация о фильме:
Название: Одни дома
Оригинальное название: How to Deter a Robber
Год выхода: 2020
Жанр: Комедия, криминал
Режиссер: Мария Бисселл
В ролях: Ванесса Марано, Крис Малки, Эбби Кобб, Леа Льюис, Гэбриэлль Картерис, Сонни Валиченти, Джона Рэй, Никки Кроуфорд, Дианна Руни, Арнольд Й. Ким

Описание: Ванесса и ее парень Джимми хотели провести выходные вдвоем, уединившись в загородном доме. Но в дом проникла пара грабителей-любителей. Кто кого? Грабители горько пожалеют, что столкнулись со сладкой парочкой.



Страна: США
Студия: Ratajack Productions
Продолжительность: 01:24:35
Перевод: Профессиональный (многоголосый, закадровый) - iTunes



Информация о файле:
Кодек: AVC
Формат: MKV
Качество: WEB-DLRip-AVC
Видео: MPEG-4 AVC, 1024x424, 23.976 fps, 1688 kbps
Аудио RU: AC3, 6 ch, 48 kHz, 384 kbps
Аудио EN: AC3, 6 ch, 48 kHz, 384 kbps
Субтитры: Aнглийские

x264 info: frame I:1188 Avg QP:10.41 size: 77588
x264 info: frame P:24958 Avg QP:13.29 size: 20589
x264 info: frame B:95528 Avg QP:15.90 size: 4859
General
Unique ID : 215101818531217105112141013907298494388 (0xA1D31A747FE25D5B4E2E9BCD894AA7B4)
Complete name : D:uTorrentРипы wolf1245Odni.Doma.2020.MVO.WEB-DLRip-AVC.[wolf1245.MediaBit].mkv
Format : Matroska
Format version : Version 4
File size : 1.45 GiB
Duration : 1 h 24 min
Overall bit rate : 2 457 kb/s
Movie name : Odni.Doma.2020.MVO.WEB-DLRip-AVC.[wolf1245.MediaBit]
Encoded date : UTC 2021-07-20 16:17:57
Writing application : mkvmerge v59.0.0 ('Shining Star') 64-bit
Writing library : libebml v1.4.2 + libmatroska v1.6.4

Video
ID : 1
Format : AVC
Format/Info : Advanced Video Codec
Format profile : High@L4.1
Format settings : CABAC / 12 Ref Frames
Format settings, CABAC : Yes
Format settings, Reference frames : 12 frames
Codec ID : V_MPEG4/ISO/AVC
Duration : 1 h 24 min
Bit rate : 1 688 kb/s
Width : 1 024 pixels
Height : 424 pixels
Display aspect ratio : 2.40:1
Frame rate mode : Constant
Frame rate : 23.976 (24000/1001) FPS
Color space : YUV
Chroma subsampling : 4:2:0
Bit depth : 8 bits
Scan type : Progressive
Bits/(Pixel*Frame) : 0.162
Stream size : 1 021 MiB (69%)
Title : [wolf1245.MediaBit]
Writing library : x264 core 157 r2958 57baac4
Encoding settings : cabac=1 / ref=12 / deblock=1:-2:-2 / analyse=0x3:0x133 / me=umh / subme=10 / psy=1 / psy_rd=0.97:0.05 / mixed_ref=1 / me_range=32 / chroma_me=1 / trellis=2 / 8x8dct=1 / cqm=0 / deadzone=21,11 / fast_pskip=1 / chroma_qp_offset=-3 / threads=10 / lookahead_threads=2 / sliced_threads=0 / nr=0 / decimate=1 / interlaced=0 / bluray_compat=0 / constrained_intra=0 / bframes=10 / b_pyramid=2 / b_adapt=2 / b_bias=0 / direct=3 / weightb=1 / open_gop=0 / weightp=2 / keyint=240 / keyint_min=24 / scenecut=40 / intra_refresh=0 / rc_lookahead=60 / rc=2pass / mbtree=1 / bitrate=1688 / ratetol=1.0 / qcomp=0.60 / qpmin=0 / qpmax=69 / qpstep=4 / cplxblur=20.0 / qblur=0.5 / vbv_maxrate=50000 / vbv_bufsize=62500 / nal_hrd=none / filler=0 / ip_ratio=1.40 / aq=3:0.80
Language : English
Default : Yes
Forced : No
Color range : Limited
Color primaries : BT.709
Transfer characteristics : BT.709
Matrix coefficients : BT.709

Audio #1
ID : 2
Format : AC-3
Format/Info : Audio Coding 3
Commercial name : Dolby Digital
Codec ID : A_AC3
Duration : 1 h 24 min
Bit rate mode : Constant
Bit rate : 384 kb/s
Channel(s) : 6 channels
Channel layout : L R C LFE Ls Rs
Sampling rate : 48.0 kHz
Frame rate : 31.250 FPS (1536 SPF)
Bit depth : 16 bits
Compression mode : Lossy
Stream size : 232 MiB (16%)
Title : MVO | iTunes
Language : Russian
Service kind : Complete Main
Default : Yes
Forced : No

Audio #2
ID : 3
Format : AC-3
Format/Info : Audio Coding 3
Commercial name : Dolby Digital
Codec ID : A_AC3
Duration : 1 h 24 min
Bit rate mode : Constant
Bit rate : 384 kb/s
Channel(s) : 6 channels
Channel layout : L R C LFE Ls Rs
Sampling rate : 48.0 kHz
Frame rate : 31.250 FPS (1536 SPF)
Bit depth : 16 bits
Compression mode : Lossy
Stream size : 232 MiB (16%)
Title : English
Language : English
Service kind : Complete Main
Default : No
Forced : No

Text #1
ID : 4
Format : UTF-8
Codec ID : S_TEXT/UTF8
Codec ID/Info : UTF-8 Plain Text
Duration : 1 h 16 min
Bit rate : 60 b/s
Count of elements : 1072
Stream size : 34.2 KiB (0%)
Title : English [Full]
Language : English
Default : No
Forced : No

Text #2
ID : 5
Format : UTF-8
Codec ID : S_TEXT/UTF8
Codec ID/Info : UTF-8 Plain Text
Duration : 1 h 22 min
Bit rate : 66 b/s
Count of elements : 1211
Stream size : 40.0 KiB (0%)
Title : English [SDH]
Language : English
Default : No
Forced : No
Релиз от: &

Автор релиза:
piratbit.org



Скачать Одни дома через торрент https://i115.fastpic.ru/big/2021/0720/60/e98ced20d52df643e73ec4914a2fe960.jpg Скачать фильм Одни дома через торрент бесплантно в хорошем качестве Описание: Ванесса и ее парень Джимми хотели провести выходные вдвоем, уединившись в загородном доме. Но в дом проникла пара ... 10 10 6
Торрент: Зарегистрирован [2021-07-20 18:16] · скачан: 74 раз
Статус: √ проверено
Размер: 1.45 GB
Как cкачать? Как скачать Одни дома через торрент | UTorrent



Последний раз редактировалось: Lithuania (2021-07-20 18:16), всего редактировалось 1 раз

28-11-2019 20:33  

Отключить всю рекламу на сайте


20-07-2021 18:08 Одни дома Скачать торрент  

раньше был ОДИН ДОМА
ТЕПЕРЬ-2
они что-размножаются?piratbit.org



20-07-2021 19:04 Одни дома Скачать торрент  

говорят фигняpiratbit.org



    Дорогой пользователь! Огромная просьба, поблагодарите релизера, оцените раздачу и оставьте свои комментарий, если Вы скачали Одни дома через торрент бесплатно! Внесите свою лепту в развитие PiratBit!
    Комментировать посты могут только пользователи прошедшие не сложную регистрацию
    Показать сообщения:    

    Одни дома через торрент
    Скачать бесплатно Одни дома
    Одни дома скачать торрент
    Одни дома смотреть онлайн
    Cкачать фильм Одни дома бесплатно
    Одни дома скачать торрент в хорошем качестве
    Одни дома смотреть онлайн бесплатно в хорошем качестве


    Вы не можете начинать темы
    Вы не можете отвечать на сообщения
    Вы не можете редактировать свои сообщения
    Вы не можете удалять свои сообщения
    Вы не можете голосовать в опросах
    Вы не можете прикреплять файлы к сообщениям
    Вы можете скачивать файлы