1 сезон

3 сезон

iTunes

1

iTunes

MVO

iTunes

13

1 сезон

RePack

30

Deluxe

pack

Лицензия

ВАЖНО

ИГРА 18+

pack

RePack

MK11

RePack

jed

RePack

fifa19

RePack

RDR2

RePack

NEED FOR SPEED™ PAYBACK

4 сезон

9 сезон

Бесстыжие 9 сезон

Все сериалы

все сериалы на PB.wtf

RePack

FAR CRY 5

Anonymous, доброй ночи, мы катастрофически не успеваем собрать деньги на оплату серверов, помогите нам пожалуйста 5,10,15р., для нас важна любая помощь . В качестве благодарности мы отключим Вам всю рекламу на сайте (укажите свой ник в строку Ваше имя)!

×
  
Magnet ссылка

В конце туннеля / Al final del túnel (Родриго Гранде) [2016, Триллер, драма, криминал, BDRip 1080p] DUB [iTunes] piratbit.org

В конце туннеля через торрент piratbit.org

Раздают: 13 [ 289 KB/s ]
Размер: 9.35 GB | Добавлен: 2 д. 23 ч. назад | Торрент скачан:101 раз
Скачать  

21-07-2021 04:12 В конце туннеля Скачать торрент  

В конце туннеля | Al final del túnel
Год выпуска: 2016
Страна: Аргентина, Испания
Студия: Haddock Films, Televisión Española (TVE), Tornasol Films
Жанр: Триллер, драма, криминал
Продолжительность: 02:00:23
Перевод: Дублированный | iTunes
Субтитры: Русские (Full), английские (Full), испанские (SDH)

Режиссер: Родриго Гранде

rating

В ролях: Леонардо Сбараглиа, Пабло Эчарри, Клара Лаго, Уолтер Донато, Серджо Феррейро, Хавьер Годино, Федерико Луппи

Описание: Банда грабителей пытается сорвать большой куш, построив подземный туннель под банком. Происходящее привлекает внимание Хоакина, парализованного человека в инвалидном кресле, проживающего в соседнем доме. Но он совсем не торопится разоблачить гангстеров, так как считает, что у него появился шанс.

Качество: BDRip 1080p
Формат: MKV

Видео: AVC/H.264, 1920x804, 10,1 Мbps, 23.976 fps
Аудио #01: 48 kHz, AC3, 5.1, 384 Kbps | iTunes | RUS |
Аудио #02: 48 kHz, AC3, 5.1, 640 Kbps | Оригинал | ESP |
скриншот  скриншот  скриншот  скриншот  

Общее
Уникальный идентификатор : 293667621808552864448128071866434959088 (0xDCEE539F957DA09832AA391E0B93B6F0)
Полное имя : Al final del tunel.2016.BDRip.1080p.W.mkv
Формат : Matroska
Версия формата : Version 4
Размер файла : 9,35 Гбайт
Продолжительность : 2 ч. 0 м.
Общий поток : 11,1 Мбит/сек
Название фильма : Al final del tunel.2016.BDRip.1080p.W
Дата кодирования : UTC 2021-07-15 18:13:13
Программа кодирования : mkvmerge v23.0.0 ('The Bride Said No') 64-bit
Библиотека кодирования : libebml v1.3.6 + libmatroska v1.4.9

Видео
Идентификатор : 1
Формат : AVC
Формат/Информация : Advanced Video Codec
Профиль формата : High@L4.1
Настройки формата : CABAC / 4 Ref Frames
Параметр CABAC формата : Да
Параметр RefFrames формата : 4 кадра
Идентификатор кодека : V_MPEG4/ISO/AVC
Продолжительность : 2 ч. 0 м.
Битрейт : 10,1 Мбит/сек
Ширина : 1 920 пикселей
Высота : 804 пикселя
Соотношение сторон : 2,40:1
Режим частоты кадров : Постоянный
Частота кадров : 23,976 (24000/1001) кадра/сек
Цветовое пространство : YUV
Субдискретизация насыщенности : 4:2:0
Битовая глубина : 8 бит
Тип развёртки : Прогрессивная
Бит/(Пиксели*Кадры) : 0.273
Размер потока : 8,49 Гбайт (91%)
Библиотека кодирования : x264 core 148 r2762 90a61ec
Настройки программы : cabac=1 / ref=4 / deblock=1:-1:-1 / analyse=0x3:0x113 / me=umh / subme=11 / psy=1 / psy_rd=1.00:0.20 / mixed_ref=1 / me_range=24 / chroma_me=1 / trellis=2 / 8x8dct=1 / cqm=0 / deadzone=21,11 / fast_pskip=0 / chroma_qp_offset=-3 / threads=12 / lookahead_threads=1 / sliced_threads=0 / nr=0 / decimate=0 / interlaced=0 / bluray_compat=0 / constrained_intra=0 / bframes=6 / b_pyramid=2 / b_adapt=2 / b_bias=0 / direct=3 / weightb=1 / open_gop=0 / weightp=2 / keyint=240 / keyint_min=23 / scenecut=40 / intra_refresh=0 / rc_lookahead=40 / rc=2pass / mbtree=0 / bitrate=10103 / ratetol=1.0 / qcomp=0.60 / qpmin=0 / qpmax=69 / qpstep=4 / cplxblur=20.0 / qblur=0.5 / vbv_maxrate=50000 / vbv_bufsize=62500 / nal_hrd=none / filler=0 / ip_ratio=1.40 / pb_ratio=1.30 / aq=1:1.00
Язык : Spanish
Default : Да
Forced : Нет

Аудио #1
Идентификатор : 2
Формат : AC-3
Формат/Информация : Audio Coding 3
Коммерческое название : Dolby Digital
Идентификатор кодека : A_AC3
Продолжительность : 2 ч. 0 м.
Вид битрейта : Постоянный
Битрейт : 384 Кбит/сек
Каналы : 6 каналов
Channel layout : L R C LFE Ls Rs
Частота : 48,0 КГц
Частота кадров : 31,250 кадров/сек (1536 SPF)
Метод сжатия : С потерями
Размер потока : 330 Мбайт (3%)
Заголовок : DUB_iTunes
Язык : Russian
Service kind : Complete Main
Default : Да
Forced : Нет

Аудио #2
Идентификатор : 3
Формат : AC-3
Формат/Информация : Audio Coding 3
Коммерческое название : Dolby Digital
Идентификатор кодека : A_AC3
Продолжительность : 2 ч. 0 м.
Вид битрейта : Постоянный
Битрейт : 640 Кбит/сек
Каналы : 6 каналов
Channel layout : L R C LFE Ls Rs
Частота : 48,0 КГц
Частота кадров : 31,250 кадров/сек (1536 SPF)
Метод сжатия : С потерями
Размер потока : 551 Мбайт (6%)
Язык : Spanish
Service kind : Complete Main
Default : Нет
Forced : Нет

Текст #1
Идентификатор : 4
Формат : UTF-8
Идентификатор кодека : S_TEXT/UTF8
Идентификатор кодека/Информация : UTF-8 Plain Text
Продолжительность : 1 ч. 52 м.
Битрейт : 74 бит/сек
Count of elements : 1184
Размер потока : 61,2 Кбайт (0%)
Заголовок : marimerci
Язык : Russian
Default : Нет
Forced : Нет

Текст #2
Идентификатор : 5
Формат : UTF-8
Идентификатор кодека : S_TEXT/UTF8
Идентификатор кодека/Информация : UTF-8 Plain Text
Продолжительность : 1 ч. 52 м.
Битрейт : 42 бит/сек
Count of elements : 1183
Размер потока : 34,8 Кбайт (0%)
Язык : English
Default : Нет
Forced : Нет

Текст #3
Идентификатор : 6
Формат : UTF-8
Идентификатор кодека : S_TEXT/UTF8
Идентификатор кодека/Информация : UTF-8 Plain Text
Продолжительность : 1 ч. 54 м.
Битрейт : 56 бит/сек
Count of elements : 1442
Размер потока : 47,6 Кбайт (0%)
Заголовок : SDH
Язык : Spanish
Default : Нет
Forced : Нет

Меню
00:00:00.000 : en:00:00:00.000
00:09:06.296 : en:00:09:06.296
00:17:22.750 : en:00:17:22.750
00:24:26.131 : en:00:24:26.131
00:30:44.843 : en:00:30:44.843
00:39:58.896 : en:00:39:58.896
00:45:13.711 : en:00:45:13.711
00:52:21.930 : en:00:52:21.930
01:04:19.522 : en:01:04:19.522
01:11:23.779 : en:01:11:23.779
01:25:56.902 : en:01:25:56.902
01:34:39.257 : en:01:34:39.257
01:48:56.697 : en:01:48:56.697
01:56:15.886 : en:01:56:15.886

piratbit.org



Скачать В конце туннеля через торрент http://d.radikal.ru/d09/2107/ce/f414b690ecc6.jpg Скачать фильм В конце туннеля через торрент бесплантно в хорошем качестве Описание: Банда грабителей пытается сорвать большой куш, построив подземный туннель под банком. Происходящее привлекает внимание Хоакина, ... 10 10 7
Торрент: Зарегистрирован [2021-07-21 04:12] · скачан: 101 раз
Статус: √ проверено
Размер: 9.35 GB
Как cкачать? Как скачать В конце туннеля через торрент | UTorrent

% Раздел Тема Автор DL S | L
Фильмы 2016 [DVDrip, WEB-DLRip, HDrip] (DUB, MVO) [ 1.46 GB ] В конце туннеля / Al final del túnel [2016 BDRip] bober100 Скачать
14 | 2
Фильмы 2016 [DVDrip, WEB-DLRip, HDrip] (DUB, MVO) [ 2.13 GB ] В конце туннеля / Al final del túnel [2016 BDRip] bober100 Скачать
8 | 1
T Фильмы 2016 [DVDrip, WEB-DLRip, HDrip] (DUB, MVO) [ 748 MB ] В конце туннеля / Al final del túnel [2016 Аргентина Испания HDRip by _Один_777] MVO Один 777 Скачать
1 | 0

28-11-2019 20:33  

Отключить всю рекламу на сайте

    Дорогой пользователь! Огромная просьба, поблагодарите релизера, оцените раздачу и оставьте свои комментарий, если Вы скачали В конце туннеля через торрент бесплатно! Внесите свою лепту в развитие PiratBit!
    Комментировать посты могут только пользователи прошедшие не сложную регистрацию
    Показать сообщения:    

    В конце туннеля через торрент
    Скачать бесплатно В конце туннеля
    В конце туннеля скачать торрент
    В конце туннеля смотреть онлайн
    Cкачать фильм В конце туннеля бесплатно
    В конце туннеля скачать торрент в хорошем качестве
    В конце туннеля смотреть онлайн бесплатно в хорошем качестве


    Вы не можете начинать темы
    Вы не можете отвечать на сообщения
    Вы не можете редактировать свои сообщения
    Вы не можете удалять свои сообщения
    Вы не можете голосовать в опросах
    Вы не можете прикреплять файлы к сообщениям
    Вы можете скачивать файлы