1 сезон

3 сезон

iTunes

1

iTunes

MVO

iTunes

13

1 сезон

RePack

30

Deluxe

pack

Лицензия

ВАЖНО

ИГРА 18+

pack

RePack

MK11

RePack

jed

RePack

fifa19

RePack

RDR2

RePack

NEED FOR SPEED™ PAYBACK

4 сезон

9 сезон

Бесстыжие 9 сезон

Все сериалы

все сериалы на PB.wtf

RePack

FAR CRY 5

Anonymous, доброе утро, мы катастрофически не успеваем собрать деньги на оплату серверов, помогите нам пожалуйста 5,10,15р., для нас важна любая помощь . В качестве благодарности мы отключим Вам всю рекламу на сайте (укажите свой ник в строку Ваше имя)!

×
  
Magnet ссылка

Охотники на троллей: Восстание титанов / Trollhunters: Rise of the Titans (Йохана Матте, Франциско Руис Веласко, Эндрю Л. Шмидт) [2021, Мультфильм, фэнтези, боевик, драма, комедия, приключения, семейный, WEB-DL-HEVC 1080p] DUB [Пифагор / Netflix] piratbit.org

Охотники на троллей: Восстание титанов через торрент piratbit.org

Раздают: 6 [ 275 KB/s ]
Размер: 5.27 GB | Добавлен: 2 д. 21 ч. назад | Торрент скачан:45 раз
Скачать  

21-07-2021 07:30 Охотники на троллей: Восстание титанов Скачать торрент  

Охотники на троллей: Восстание титанов | Trollhunters: Rise of the Titans
Год выпуска: 2021
Страна: США, Мексика
Выпущено: Double Dare You (DDY), DreamWorks Animation
Жанр: Мультфильм, фэнтези, боевик, драма, комедия, приключения, семейный
Продолжительность: 01:46:23
Перевод: Дублированный | Пифагор по заказу Netflix
Субтитры: Русские (Forced, full), английские

Режиссер: Йохана Матте, Франциско Руис Веласко, Эндрю Л. Шмидт

rating

В ролях: Стивен Юн, Ник Офферман, Ник Фрост, Эмиль Хирш, Келси Грэммер, Альфред Молина, Диего Луна, Шерил Хайнс, Чарли Сэкстон, Лекси Медрано

Описание: Возможно, Аркадия выглядит как обычный город, но она находится на пересечении волшебных и мистических линий, поэтому оказывается в гуще событий, когда между неземными существами — троллями, инопланетянами и магами — возникают раздоры. Герои объединяются, чтобы победить Тайный орден в эпической битве и обрести Влacть над магией, которая всех связывает.

Качество: WEB-DL-HEVC 1080p
Формат: MKV

Видео: 1920x1080 at 23.976 fps, MPEG-H HEVC HDR Video, ~ 5115 kbps avg
Аудио #01: 48 kHz, E-AC3, 5.1, 640 Kbps | Дублированный | RUS |
Аудио #02: 48 kHz, AC3, 5.1, 640 Kbps | Дублированный | RUS |
Аудио #03: 48 kHz, E-AC3+Atmos, 5.1, 768 Kbps | Оригинал | ENG |
скриншот  скриншот  скриншот  скриншот  скриншот  

General
Unique ID : 322281486818944824301652221843230951509 (0xF2752816D8F34B55418F681E741C0855)
Complete name : G:VideoTrollhunters.Rise.of.the.Titans.2021.WEB-DL.1080p.HDR.seleZen.mkv
Format : Matroska
Format version : Version 4
File size : 5.27 GiB
Duration : 1 h 46 min
Overall bit rate : 7 095 kb/s
Movie name : Trollhunters: Rise of the Titans 2021 from seleZen
Encoded date : UTC 2021-07-21 07:17:23
Writing application : mkvmerge v53.0.0 ('Fool's Gold') 64-bit
Writing library : libebml v1.4.1 + libmatroska v1.6.2

Video
ID : 1
Format : HEVC
Format/Info : High Efficiency Video Coding
Format profile : Main 10@L4@Main
HDR format : SMPTE ST 2086, HDR10 compatible
Codec ID : V_MPEGH/ISO/HEVC
Duration : 1 h 44 min
Bit rate : 5 115 kb/s
Width : 1 920 pixels
Height : 1 080 pixels
Display aspect ratio : 16:9
Frame rate mode : Constant
Frame rate : 23.976 (24000/1001) FPS
Color space : YUV
Chroma subsampling : 4:2:0 (Type 2)
Bit depth : 10 bits
Bits/(Pixel*Frame) : 0.103
Stream size : 3.75 GiB (71%)
Language : English
Default : Yes
Forced : No
Color range : Limited
Color primaries : BT.2020
Transfer characteristics : PQ
Matrix coefficients : BT.2020 non-constant
Mastering display color pri : Display P3
Mastering display luminance : min: 0.0001 cd/m2, max: 1000 cd/m2
Maximum Content Light Level : 2018 cd/m2
Maximum Frame-Average Light : 983 cd/m2

Audio #1
ID : 2
Format : E-AC-3
Format/Info : Enhanced AC-3
Commercial name : Dolby Digital Plus
Codec ID : A_EAC3
Duration : 1 h 46 min
Bit rate mode : Constant
Bit rate : 640 kb/s
Channel(s) : 6 channels
Channel layout : L R C LFE Ls Rs
Sampling rate : 48.0 kHz
Frame rate : 31.250 FPS (1536 SPF)
Compression mode : Lossy
Stream size : 487 MiB (9%)
Title : Netflix
Language : Russian
Service kind : Complete Main
Default : Yes
Forced : Yes

Audio #2
ID : 3
Format : AC-3
Format/Info : Audio Coding 3
Commercial name : Dolby Digital
Codec ID : A_AC3
Duration : 1 h 46 min
Bit rate mode : Constant
Bit rate : 640 kb/s
Channel(s) : 6 channels
Channel layout : L R C LFE Ls Rs
Sampling rate : 48.0 kHz
Frame rate : 31.250 FPS (1536 SPF)
Compression mode : Lossy
Stream size : 487 MiB (9%)
Language : Russian
Service kind : Complete Main
Default : No
Forced : No

Audio #3
ID : 4
Format : E-AC-3 JOC
Format/Info : Enhanced AC-3 with Joint Object Coding
Commercial name : Dolby Digital Plus with Dolby Atmos
Codec ID : A_EAC3
Duration : 1 h 46 min
Bit rate mode : Constant
Bit rate : 768 kb/s
Channel(s) : 6 channels
Channel layout : L R C LFE Ls Rs
Sampling rate : 48.0 kHz
Frame rate : 31.250 FPS (1536 SPF)
Compression mode : Lossy
Stream size : 584 MiB (11%)
Language : English
Service kind : Complete Main
Default : No
Forced : No
Complexity index : 16
Number of dynamic objects : 15
Bed channel count : 1 channel
Bed channel configuration : LFE

Text #1
ID : 5
Format : UTF-8
Codec ID : S_TEXT/UTF8
Codec ID/Info : UTF-8 Plain Text
Duration : 1 h 44 min
Bit rate : 1 b/s
Count of elements : 37
Stream size : 1.24 KiB (0%)
Title : Forced
Language : Russian
Default : Yes
Forced : Yes

Text #2
ID : 6
Format : UTF-8
Codec ID : S_TEXT/UTF8
Codec ID/Info : UTF-8 Plain Text
Duration : 1 h 44 min
Bit rate : 75 b/s
Count of elements : 1256
Stream size : 57.6 KiB (0%)
Title : Русский
Language : Russian
Default : No
Forced : No

Text #3
ID : 7
Format : UTF-8
Codec ID : S_TEXT/UTF8
Codec ID/Info : UTF-8 Plain Text
Duration : 9 min 59 s
Bit rate : 3 b/s
Count of elements : 14
Stream size : 271 Bytes (0%)
Title : English (Forced)
Language : English
Default : No
Forced : No

Text #4
ID : 8
Format : UTF-8
Codec ID : S_TEXT/UTF8
Codec ID/Info : UTF-8 Plain Text
Duration : 1 h 38 min
Bit rate : 60 b/s
Count of elements : 1616
Stream size : 43.9 KiB (0%)
Title : English (SDH)
Language : English
Default : No
Forced : No

piratbit.org



Скачать Охотники на троллей: Восстание титанов через торрент https://b.radikal.ru/b01/2107/55/0bd612841a2d.jpg Скачать фильм Охотники на троллей: Восстание титанов через торрент бесплантно в хорошем качестве Описание: Возможно, Аркадия выглядит как обычный город, но она находится на пересечении волшебных и мистических линий, поэтому оказывается ... 10 10 2
Торрент: Зарегистрирован [2021-07-21 07:30] · скачан: 45 раз
Статус: √ проверено
Размер: 5.27 GB
Как cкачать? Как скачать Охотники на троллей: Восстание титанов через торрент | UTorrent

% Раздел Тема Автор DL S | L
Зарубежные Мультфильмы (WEB-DL 720p, 1080p) [ 5.36 GB ] Охотники на троллей: Восстание титанов / Trollhunters: Rise of the Titans [2021 Мультфильм WEB-DL 1080p] DUB [Пифагор / Netflix] bober100 Скачать
11 | 0
Иностранные мультфильмы [ 1.46 GB ] Охотники на троллей: Восстание титанов / Trollhunters: Rise of the Titans [2021 Мультфильм WEB-DLRip] DUB [Пифагор / Netflix] bober100 Скачать
10 | 0
Зарубежные Мультфильмы (WEB-DL 720p, 1080p) [ 3.83 GB ] Охотники на троллей: Восстание титанов / Trollhunters: Rise of the Titans [2021 Мультфильм WEB-DL 720p] DUB [Пифагор / Netflix] bober100 Скачать
8 | 0

28-11-2019 20:33  

Отключить всю рекламу на сайте

    Дорогой пользователь! Огромная просьба, поблагодарите релизера, оцените раздачу и оставьте свои комментарий, если Вы скачали Охотники на троллей: Восстание титанов через торрент бесплатно! Внесите свою лепту в развитие PiratBit!
    Комментировать посты могут только пользователи прошедшие не сложную регистрацию
    Показать сообщения:    

    Охотники на троллей: Восстание титанов через торрент
    Скачать бесплатно Охотники на троллей: Восстание титанов
    Охотники на троллей: Восстание титанов скачать торрент
    Охотники на троллей: Восстание титанов смотреть онлайн
    Cкачать фильм Охотники на троллей: Восстание титанов бесплатно
    Охотники на троллей: Восстание титанов скачать торрент в хорошем качестве
    Охотники на троллей: Восстание титанов смотреть онлайн бесплатно в хорошем качестве


    Вы не можете начинать темы
    Вы не можете отвечать на сообщения
    Вы не можете редактировать свои сообщения
    Вы не можете удалять свои сообщения
    Вы не можете голосовать в опросах
    Вы не можете прикреплять файлы к сообщениям
    Вы можете скачивать файлы