1 сезон

iTunes

iTunes

1

Line

MVO

iTunes

13

1 сезон

RePack

30

Deluxe

pack

Лицензия

ВАЖНО

ИГРА 18+

pack

RePack

MK11

RePack

jed

RePack

fifa19

RePack

RDR2

RePack

NEED FOR SPEED™ PAYBACK

4 сезон

9 сезон

Бесстыжие 9 сезон

Все сериалы

все сериалы на PB.wtf

RePack

FAR CRY 5

Anonymous, доброй ночи, мы катастрофически не успеваем собрать деньги на оплату серверов, помогите нам пожалуйста 5,10,15р., для нас важна любая помощь . В качестве благодарности мы отключим Вам всю рекламу на сайте (укажите свой ник в строку Ваше имя)!

×
  
Magnet ссылка

Фитнес / Королева фитнеса / Сезон: 5 / Серии: 1-12 из 20 (Кирилл Васильев) [2021, Комедия, WEBRip 720p] piratbit.org

Фитнес через торрент piratbit.org

Размер: 6.11 GB | Добавлен: 1 мин. назад | Торрент скачан:0 раз
Скачать  

21-07-2021 16:41 Фитнес Скачать торрент  

Фитнес | Королева фитнеса
Год выпуска: 2021
Страна: Россия
Выпущено: Производство ООО «СУПЕР продакшн»
Жанр: Комедия
Продолжительность: ~ 00:25:00 (Серия)
Перевод: Не требуется
Субтитры: отсутствуют

Режиссер: Кирилл Васильев



В ролях: Софья Зайка, Михаил Трухин, Татьяна Храмова (II), Роман Курцын, Борис Дергачев, Марианна Шульц, Алексей Демидов, Филипп Бледный, Зоя Мансурова, Александр Шульгин (II), Фэй Я Цзоу, Кристина Юдичева, Дмитрий Чеботарёв, Евгений Михеев, Софья Донианц, Лёля Баранова, Николай Шрайбер, Светлана Камынина, Елизавета Мартинес, Владимир Максимов (VI), Пётр Королёв (II), Анатолий Петрунин, Дмитрий Морозов, Ирина Бякова, Сергей Троев, Руслан Банковский, Дмитрий Овчинников, Евгений Зеленский, Алла Николаева, Антон Никушин, Нина Кириллова, Дмитрий Калихов, Алексей Карпов (III), Стефан Бузылев, Андрей Артамонов, Анастасия Ушакова (II), Арина Горбачёва, Ирина Чипиженко, Николай Герман

Описание: Жизнь главной героини Аси Королевой наконец-то обретает понятные очертания. У неё есть парень и бизнес-тренер в одном лице, и она планирует всецело посвятить себя коучингу. Но… Белла неожиданно переписывает «СуперФит» на Асю и Бориса, делая их владельцами неработающего фитнес-клуба.

Качество: WEBRip 720p
Формат: MKV

Видео: MPEG-4 AVC, ~ 3000 Кбит/с, 1280x720, 25 кадр/сек
Аудио: 48.0 kHz, AC3 Dolby Digital, 2/0 (L,R) ch, ~ 192 kbps
скриншот  скриншот  скриншот  скриншот  

Общее
Уникальный идентификатор : 177853624298082072823642017785437380859 (0x85CD5CB0F84F936388914B5D99F660FB)
Полное имя : D:Fitnes.S05.2021.WEB-DL.720p1.Fitnes.S05.2021.WEB-DL.720p.mkv
Формат : Matroska
Версия формата : Version 4
Размер файла : 554 Мбайт
Продолжительность : 24 м. 38 с.
Режим общего битрейта : Переменный
Общий поток : 3 146 Кбит/сек
Название фильма : 01.Fitnes.S05.2021.WEB-DL.720p
Дата кодирования : UTC 2021-07-20 01:20:45
Программа кодирования : mkvmerge v59.0.0 ('Shining Star') 64-bit
Библиотека кодирования : libebml v1.4.2 + libmatroska v1.6.4
Attachments : poster.jpg

Видео
Идентификатор : 1
Формат : AVC
Формат/Информация : Advanced Video Codec
Профиль формата : High@L3.1
Настройки формата : CABAC / 1 Ref Frames
Параметр CABAC формата : Да
Параметр RefFrames формата : 1 кадр
Параметр GOP формата : M=1, N=50
Идентификатор кодека : V_MPEG4/ISO/AVC
Продолжительность : 24 м. 38 с.
Вид битрейта : Переменный
Битрейт : 2 951 Кбит/сек
Максимальный битрейт : 3 000 Кбит/сек
Ширина : 1 280 пикселей
Высота : 720 пикселей
Соотношение сторон : 16:9
Режим частоты кадров : Постоянный
Частота кадров : 25,000 кадров/сек
Цветовое пространство : YUV
Субдискретизация насыщенности : 4:2:0
Битовая глубина : 8 бит
Тип развёртки : Прогрессивная
Бит/(Пиксели*Кадры) : 0.128
Размер потока : 520 Мбайт (94%)
Default : Да
Forced : Нет

Аудио
Идентификатор : 2
Формат : AC-3
Формат/Информация : Audio Coding 3
Коммерческое название : Dolby Digital
Идентификатор кодека : A_AC3
Продолжительность : 24 м. 38 с.
Вид битрейта : Постоянный
Битрейт : 192 Кбит/сек
Каналы : 2 канала
Channel layout : L R
Частота : 48,0 КГц
Частота кадров : 31,250 кадров/сек (1536 SPF)
Метод сжатия : С потерями
Размер потока : 33,8 Мбайт (6%)
Service kind : Complete Main
Default : Да
Forced : Нет

Внимание! Раздача ведётся путём добавления новых серий; при каждом добавлении создаётся новый торрент.
Чтобы начать докачку новой серии, пользователям необходимо сделать следующее:
1. Остановить скачивание;
2. Удалить старый торрент у себя из клиента (старые серии удалять не надо);
3. Скачать новый торрент и запустить его у себя в клиенте вместо старого, при этом указать клиенту путь в старую папку куда и должно происходить скачивание новых серий. Ваш клиент при этом должен произвести хеширование (проверку) старой папки и будет докачивать только те серии, которых у вас ещё нет. Старые серии при этом не удаляются, а продолжают раздаваться! Eсли вы уже удалили старые серии, то предотвратить повторную закачку старых серий можно, отжав галочку в соответствующих местах при запуске нового торрента.
piratbit.org



Скачать Фитнес через торрент https://a.radikal.ru/a12/2107/7c/6b2ade420fae.jpg Скачать фильм Фитнес через торрент бесплантно в хорошем качестве Описание: Жизнь главной героини Аси Королевой наконец-то обретает понятные очертания. У неё есть парень и бизнес-тренер в одном лице, и она ... 10 10 2
Торрент: Зарегистрирован [2021-08-03 03:37] · скачан: 0 раз
Статус: √ проверено
Размер: 6.11 GB
Как cкачать? Как скачать Фитнес через торрент | UTorrent

% Раздел Тема Автор DL S | L
TNT serials [ 1.78 GB ] Фитнес / Королева фитнеса / Сезон: 5 / Серии: 1-6 из 20 [2021 WEBRip-AVC] bober100 Скачать
2 | 0
TNT serials [ 4.59 GB ] Фитнес / Королева фитнеса / Сезон: 5 / Серии: 1-6 из 20 [2021 WEBRip 1080p] bober100 Скачать
3 | 0

28-11-2019 20:33  

Отключить всю рекламу на сайте

    Дорогой пользователь! Огромная просьба, поблагодарите релизера, оцените раздачу и оставьте свои комментарий, если Вы скачали Фитнес через торрент бесплатно! Внесите свою лепту в развитие PiratBit!
    Комментировать посты могут только пользователи прошедшие не сложную регистрацию
    Показать сообщения:    

    Фитнес через торрент
    Скачать бесплатно Фитнес
    Фитнес скачать торрент
    Фитнес смотреть онлайн
    Cкачать фильм Фитнес бесплатно
    Фитнес скачать торрент в хорошем качестве
    Фитнес смотреть онлайн бесплатно в хорошем качестве


    Вы не можете начинать темы
    Вы не можете отвечать на сообщения
    Вы не можете редактировать свои сообщения
    Вы не можете удалять свои сообщения
    Вы не можете голосовать в опросах
    Вы не можете прикреплять файлы к сообщениям
    Вы можете скачивать файлы