1 сезон

3 сезон

iTunes

1

iTunes

MVO

iTunes

13

1 сезон

RePack

30

Deluxe

pack

Лицензия

ВАЖНО

ИГРА 18+

pack

RePack

MK11

RePack

jed

RePack

fifa19

RePack

RDR2

RePack

NEED FOR SPEED™ PAYBACK

4 сезон

9 сезон

Бесстыжие 9 сезон

Все сериалы

все сериалы на PB.wtf

RePack

FAR CRY 5

Anonymous, доброе утро, мы катастрофически не успеваем собрать деньги на оплату серверов, помогите нам пожалуйста 5,10,15р., для нас важна любая помощь . В качестве благодарности мы отключим Вам всю рекламу на сайте (укажите свой ник в строку Ваше имя)!

×
  
Magnet ссылка

Пила: Спираль / Spiral: From the Book of Saw (Даррен Линн Боусман) [2021, Ужасы, детектив, триллер, BDRip 720p] DUB [СинеЛаб СаундМикс] piratbit.org

Пила: Спираль через торрент piratbit.org

Раздают: 5 [ 242 KB/s ]
Размер: 3.96 GB | Добавлен: 2 д. 4 ч. назад | Торрент скачан:34 раза
Скачать  

22-07-2021 01:08 Пила: Спираль Скачать торрент  

Пила: Спираль
Spiral: From the Book of Saw

Год выпуска: 2021
Страна: США, Канада
Студия: Lionsgate, Twisted Pictures, Serendipity Productions
Жанр: Ужасы, детектив, триллер
Продолжительность: 01:33:06
Перевод: Дублированный | СинеЛаб СаундМикс
Субтитры: Русские ((форсированные, стилизованные, на надписи и прочее, вшитые), (полные [Enigma])), английские

Режиссер: Даррен Линн Боусман

rating

В ролях: Крис Рок, Сэмюэл Л. Джексон, Морган Дэвид Джонс, Али Джонсон, Дэн Петрониевич, Ричард Зэппери, Эди Инксеттер, Лейла Ли, Макс Мингелла, Кристофер Таи

Описание: Импульсивный детектив полиции Нью-Йорка Зик Бэнкс всю жизнь пытается вырваться из тени своего отца, прославленного ветерана правоохранительных органов. Однажды Бэнксу и его новому напарнику поручают расследование серии жестоких убийств, которые странным образом напоминают преступления прошлых лет. Так они оказываются в эпицентре зловещей игры, и цена проигрыша в ней — человеческая жизнь.

Качество: BDRip 720p
Формат: MKV

Видео: MPEG-4 AVC, 1280x538, 5000 Kbit/s, 23.976 fps
Аудио #01: 48 kHz, AC3, 5.1, 448 Kbps | Дублированный (СинеЛаб СаундМикс) | RUS |
Аудио #02: 48 kHz, AC3, 5.1, 640 Kbps | Оригинал | ENG |
скриншот  скриншот  скриншот  скриншот  скриншот  

General
Unique ID : 246838500801936288294743405784837146711 (0xB9B35DB2F9E8AC01E4C07993A2084857)
Complete name : G:VideoSpiral.From.the.Book.of.Saw.2021.BDRip.720p.seleZen.mkv
Format : Matroska
Format version : Version 4
File size : 3.96 GiB
Duration : 1 h 33 min
Overall bit rate : 6 086 kb/s
Movie name : Spiral From the Book of Saw 2021 from seleZen
Encoded date : UTC 2021-07-21 21:54:42
Writing application : mkvmerge v53.0.0 ('Fool's Gold') 64-bit
Writing library : libebml v1.4.1 + libmatroska v1.6.2

Video
ID : 1
Format : AVC
Format/Info : Advanced Video Codec
Format profile : High@L4.1
Format settings : CABAC / 12 Ref Frames
Format settings, CABAC : Yes
Format settings, Reference : 12 frames
Codec ID : V_MPEG4/ISO/AVC
Duration : 1 h 33 min
Bit rate : 5 000 kb/s
Width : 1 280 pixels
Height : 538 pixels
Display aspect ratio : 2.40:1
Frame rate mode : Constant
Frame rate : 23.976 (24000/1001) FPS
Color space : YUV
Chroma subsampling : 4:2:0
Bit depth : 8 bits
Scan type : Progressive
Bits/(Pixel*Frame) : 0.303
Stream size : 3.25 GiB (82%)
Writing library : x264 core 146 -from seleZen
Encoding settings : cabac=1 / ref=12 / deblock=1:-2:-2 / analyse=0x3:0x133 / me=umh / subme=10 / psy=1 / psy_rd=1.05:0.05 / mixed_ref=1 / me_range=32 / chroma_me=1 / trellis=2 / 8x8dct=1 / cqm=0 / deadzone=21,11 / fast_pskip=0 / chroma_qp_offset=-3 / threads=48 / lookahead_threads=4 / sliced_threads=0 / nr=0 / decimate=0 / interlaced=0 / bluray_compat=0 / constrained_intra=0 / bframes=9 / b_pyramid=2 / b_adapt=2 / b_bias=0 / direct=3 / weightb=1 / open_gop=0 / weightp=2 / keyint=240 / keyint_min=23 / scenecut=40 / intra_refresh=0 / rc_lookahead=50 / rc=2pass / mbtree=0 / bitrate=5000 / ratetol=1.0 / qcomp=0.60 / qpmin=0 / qpmax=51 / qpstep=4 / cplxblur=20.0 / qblur=0.5 / vbv_maxrate=50000 / vbv_bufsize=62500 / nal_hrd=none / filler=0 / ip_ratio=1.40 / pb_ratio=1.30 / aq=3:0.80
Language : English
Default : Yes
Forced : No

Audio #1
ID : 2
Format : AC-3
Format/Info : Audio Coding 3
Commercial name : Dolby Digital
Codec ID : A_AC3
Duration : 1 h 33 min
Bit rate mode : Constant
Bit rate : 448 kb/s
Channel(s) : 6 channels
Channel layout : L R C LFE Ls Rs
Sampling rate : 48.0 kHz
Frame rate : 31.250 FPS (1536 SPF)
Compression mode : Lossy
Stream size : 298 MiB (7%)
Title : Dub [СинеЛаб СаундМикс]
Language : Russian
Service kind : Complete Main
Default : Yes
Forced : Yes

Audio #2
ID : 3
Format : AC-3
Format/Info : Audio Coding 3
Commercial name : Dolby Digital
Format settings : Dolby Surround EX
Codec ID : A_AC3
Duration : 1 h 33 min
Bit rate mode : Constant
Bit rate : 640 kb/s
Channel(s) : 6 channels
Channel layout : L R C LFE Ls Rs
Sampling rate : 48.0 kHz
Frame rate : 31.250 FPS (1536 SPF)
Compression mode : Lossy
Stream size : 426 MiB (11%)
Title : Original
Language : English
Service kind : Complete Main
Default : No
Forced : No

Text #1
ID : 4
Format : UTF-8
Codec ID : S_TEXT/UTF8
Codec ID/Info : UTF-8 Plain Text
Duration : 1 h 25 min
Bit rate : 99 b/s
Count of elements : 1260
Stream size : 62.2 KiB (0%)
Title : Full (Enigma)
Language : Russian
Default : No
Forced : No

Text #2
ID : 5
Format : UTF-8
Codec ID : S_TEXT/UTF8
Codec ID/Info : UTF-8 Plain Text
Duration : 1 h 25 min
Bit rate : 61 b/s
Count of elements : 1271
Stream size : 38.3 KiB (0%)
Title : Full
Language : English
Default : No
Forced : No

Text #3
ID : 6
Format : UTF-8
Codec ID : S_TEXT/UTF8
Codec ID/Info : UTF-8 Plain Text
Duration : 1 h 26 min
Bit rate : 67 b/s
Count of elements : 1440
Stream size : 42.6 KiB (0%)
Title : SDH
Language : English
Default : No
Forced : No

Menu
00:00:00.000 : en:Глава 01
00:05:45.428 : en:Глава 02
00:11:25.476 : en:Глава 03
00:16:56.599 : en:Глава 04
00:23:20.190 : en:Глава 05
00:27:47.416 : en:Глава 06
00:34:08.213 : en:Глава 07
00:38:44.656 : en:Глава 08
00:45:15.171 : en:Глава 09
00:49:44.315 : en:Глава 10
00:55:25.489 : en:Глава 11
00:59:14.217 : en:Глава 12
01:06:47.295 : en:Глава 13
01:09:19.072 : en:Глава 14
01:15:18.723 : en:Глава 15
01:20:22.818 : en:Глава 16

piratbit.org



Скачать Пила: Спираль через торрент https://d.radikal.ru/d01/2107/e3/2660f609de79.jpg Скачать фильм Пила: Спираль через торрент бесплантно в хорошем качестве Описание: Импульсивный детектив полиции Нью-Йорка Зик Бэнкс всю жизнь пытается вырваться из тени своего отца, прославленного ветерана ... 10 10 5
Торрент: Зарегистрирован [2021-07-22 01:08] · скачан: 34 раз
Статус: √ проверено
Размер: 3.96 GB
Как cкачать? Как скачать Пила: Спираль через торрент | UTorrent

% Раздел Тема Автор DL S | L
Фильмы [HD 720p, 1080p] (Хороший звук DUB, MVO) [ 7.2 GB ] Пила: Спираль / Spiral: From the Book of Saw [2021 BDRip 1080p] DUB [СинеЛаб СаундМикс] bober100 Скачать
13 | 0
* Фильмы [HD 720p, 1080p] (Хороший звук DUB, MVO) [ 3.22 GB ] Пила: Спираль / Spiral: From the Book of Saw [2021 BDRip 720p Оригинал] winchester00100010 Скачать
10 | 3
Фильмы 2021 [DVDrip, WEB-DLRip, HDrip] (DUB, MVO) [ 1.46 GB ] Пила: Спираль / Spiral: From the Book of Saw [2021 BDRip] - [СинеЛаб СаундМикс] Twi7ter Скачать
26 | 0
Фильмы 2021 [DVDrip, WEB-DLRip, HDrip] (DUB, MVO) [ 1.46 GB ] Пила: Спираль / Spiral: From the Book of Saw [2021 BDRip] DUB [СинеЛаб СаундМикс] bober100 Скачать
2 | 0
Фильмы 2021 [DVDrip, WEB-DLRip, HDrip] (DUB, MVO) [ 746 MB ] Пила: Спираль / Spiral: From the Book of Saw [2021 BDRip] DUB [СинеЛаб СаундМикс] bober100 Скачать
4 | 0
Фильмы (Blu-ray, BD-Remux, HDDVD) [ 25.51 GB ] Пила: Спираль / Spiral: From the Book of Saw [2021 BD Remux 1080p] DUB [СинеЛаб СаундМикс] bober100 Скачать
4 | 2
Фильмы 2021 [DVDrip, WEB-DLRip, HDrip] (DUB, MVO) [ 1.46 GB ] Пила: Спираль / Spiral: From the Book of Saw [2021 BDRip] MVO [HDRezka Studio] bober100 Скачать
5 | 0

28-11-2019 20:33  

Отключить всю рекламу на сайте

    Дорогой пользователь! Огромная просьба, поблагодарите релизера, оцените раздачу и оставьте свои комментарий, если Вы скачали Пила: Спираль через торрент бесплатно! Внесите свою лепту в развитие PiratBit!
    Комментировать посты могут только пользователи прошедшие не сложную регистрацию
    Показать сообщения:    

    Пила: Спираль через торрент
    Скачать бесплатно Пила: Спираль
    Пила: Спираль скачать торрент
    Пила: Спираль смотреть онлайн
    Cкачать фильм Пила: Спираль бесплатно
    Пила: Спираль скачать торрент в хорошем качестве
    Пила: Спираль смотреть онлайн бесплатно в хорошем качестве


    Вы не можете начинать темы
    Вы не можете отвечать на сообщения
    Вы не можете редактировать свои сообщения
    Вы не можете удалять свои сообщения
    Вы не можете голосовать в опросах
    Вы не можете прикреплять файлы к сообщениям
    Вы можете скачивать файлы