Достать ножи: Стеклянная луковица

MVO

Добыча

Дубляж

Уэнсдэй

1 сезон

Тор

Дубляж

13 клиническая

1 сезон

Жестокая ночь

MVO

Одни из нас

1 сезон

Deluxe

pack

Рекомендуем

30

Пиратка

ВАЖНО

ВАЖНО

Ghostwire

Пиратка

jed

RePack

nioh2

RePack

RDR2

RePack

NEED FOR SPEED™ PAYBACK

RePack

скачать торрент

Кинопоиск HD

Острые козырьки 6 сезон

6 сезон

FAR CRY 6

RePack

скачать торрент

Лицензия

скачать торрент

MVO

1

1 сезон

скачать торрент

1 сезон

скачать торрент

Лицензия

  

Круиз по джунглям / Jungle Cruise (Жауме Кольет-Серра) [2021, Приключения, комедия, фэнтези, UHD BDRemux 2160p] Дубляж [Невафильм] +MVO [HDRezka] (rus, ukr) +AVO [М. Яроцкий (kyberpunk)]

Круиз по джунглям через торрент piratbit.org

Раздают: 1 [ 0 KB/s ]
Размер: 54.46 GB | Добавлен: 1 год 3 мес. назад | Торрент скачан:168 раз
Смотреть онлайн | Скачать | Поддержите нас   

02-08-2021 14:26 Круиз по джунглям Скачать торрент  

Круиз по джунглям | Jungle Cruise
Год выпуска: 2021
Страна: США
Выпущено: 7 Bucks Productions, Davis Entertainment, Flynn Picture Company, TSG Entertainment, Walt Disney Pictures, Zaftig Films
Жанр: Приключения, комедия, фэнтези
Продолжительность: 02:07:19
Перевод:
#1: Дублированный | Невафильм
#2: Профессиональный многоголосый | HDRezka
#3: Авторский | М. Яроцкий (kyberpunk)
Субтитры: Русские (Forced, 2 x full), английские

Режиссер: Жауме Кольет-Серра

rating

В ролях: Эмили Блант, Дуэйн Джонсон, Эдгар Рамирес, Джек Уайтхолл, Джесси Племонс, Пол Джаматти, Вероника Фалькон, Энди Найман, Филипп Максимилиан, Дэни Ровира

Описание: Отважная исследовательница дикой природы Лили Хоутон намерена отправиться в верховья Амазонки, чтобы найти легендарное дерево, которое – согласно преданиям южноамериканских индейских племен – обладает магическими целебными свойствами. Сопровождать Лили будут её утонченный брат Макгрегор и бесшабашный капитан круизного пароходика Фрэнк. В дебрях джунглей путников будут подстерегать не только смертельно опасные представители амазонской флоры и фауны, но и ловушки, подстроенные участниками конкурирующей экспедиции, и даже встречи со сверхъестественным.

Качество: UHD BDRemux 2160p
Формат: MKV

Видео: 3840x2160 at 23.976 fps, MPEG-H HEVC HDR Video, ~ 84300 kbps avg
Аудио #01: 48 kHz, E-AC3, 5.1, 448 Kbps | Дублированный | Невафильм | RUS |
Аудио #02: 48 kHz, AC3, 5.1, 448 Kbps | Дублированный | Невафильм | RUS |
Аудио #03: 48 kHz, AC3, 5.1, 448 Kbps | Профессиональный многоголосый | HDRezka | RUS |
Аудио #04: 48 kHz, AC3, 5.1, 640 Kbps | Авторский | М. Яроцкий (kyberpunk) | RUS |
Аудио #05: 48 kHz, AC3, 5.1, 384 Kbps | HDRezka | UKR |
Аудио #06: 48 kHz, TrueHD, 7.1, 4861 Kbps | Оригинал | ENG |

Аудио #07: 48 kHz, AC3, 5.1, 640 Kbps | Оригинал | ENG |
скриншот  скриншот  скриншот  скриншот  скриншот  

General
Unique ID : 103229413866997272358303860623262458062 (0x4DA9430DE598D026117CD2E133A1A0CE)
Complete name : E:VideoJungle.Cruise.2021.D.MVO.AVO.BDREMUX.2160p.seleZen.mkv
Format : Matroska
Format version : Version 4
File size : 54.5 GiB
Duration : 2 h 7 min
Overall bit rate mode : Variable
Overall bit rate : 61.1 Mb/s
Movie name : Jungle Cruise 2021 from seleZen
Encoded date : UTC 2021-10-01 08:59:23
Writing application : mkvmerge v59.0.0 ('Shining Star') 64-bit
Writing library : libebml v1.4.2 + libmatroska v1.6.4

Video
ID : 1
Format : HEVC
Format/Info : High Efficiency Video Coding
Format profile : Main 10@L5.1@High
HDR format : SMPTE ST 2086, HDR10 compatible
Codec ID : V_MPEGH/ISO/HEVC
Duration : 2 h 7 min
Bit rate : 53.3 Mb/s
Width : 3 840 pixels
Height : 2 160 pixels
Display aspect ratio : 16:9
Frame rate mode : Constant
Frame rate : 23.976 (24000/1001) FPS
Color space : YUV
Chroma subsampling : 4:2:0 (Type 2)
Bit depth : 10 bits
Bits/(Pixel*Frame) : 0.268
Stream size : 47.4 GiB (87%)
Language : English
Default : Yes
Forced : No
Color range : Limited
Color primaries : BT.2020
Transfer characteristics : PQ
Matrix coefficients : BT.2020 non-constant
Mastering display color primaries : Display P3
Mastering display luminance : min: 0.0050 cd/m2, max: 1000 cd/m2

Audio #1
ID : 2
Format : E-AC-3
Format/Info : Enhanced AC-3
Commercial name : Dolby Digital Plus
Codec ID : A_EAC3
Duration : 2 h 7 min
Bit rate mode : Constant
Bit rate : 448 kb/s
Channel(s) : 6 channels
Channel layout : L R C LFE Ls Rs
Sampling rate : 48.0 kHz
Frame rate : 31.250 FPS (1536 SPF)
Compression mode : Lossy
Stream size : 409 MiB (1%)
Title : Дубляж [Невафильм]
Language : Russian
Service kind : Complete Main
Default : Yes
Forced : Yes

Audio #2
ID : 3
Format : AC-3
Format/Info : Audio Coding 3
Commercial name : Dolby Digital
Codec ID : A_AC3
Duration : 2 h 7 min
Bit rate mode : Constant
Bit rate : 448 kb/s
Channel(s) : 6 channels
Channel layout : L R C LFE Ls Rs
Sampling rate : 48.0 kHz
Frame rate : 31.250 FPS (1536 SPF)
Compression mode : Lossy
Stream size : 409 MiB (1%)
Title : Дубляж [Невафильм]
Language : Russian
Service kind : Complete Main
Default : No
Forced : No

Audio #3
ID : 4
Format : AC-3
Format/Info : Audio Coding 3
Commercial name : Dolby Digital
Codec ID : A_AC3
Duration : 2 h 7 min
Bit rate mode : Constant
Bit rate : 448 kb/s
Channel(s) : 6 channels
Channel layout : L R C LFE Ls Rs
Sampling rate : 48.0 kHz
Frame rate : 31.250 FPS (1536 SPF)
Compression mode : Lossy
Stream size : 408 MiB (1%)
Title : MVO [HDRezka]
Language : Russian
Service kind : Complete Main
Default : No
Forced : No

Audio #4
ID : 5
Format : AC-3
Format/Info : Audio Coding 3
Commercial name : Dolby Digital
Codec ID : A_AC3
Duration : 2 h 7 min
Bit rate mode : Constant
Bit rate : 640 kb/s
Channel(s) : 6 channels
Channel layout : L R C LFE Ls Rs
Sampling rate : 48.0 kHz
Frame rate : 31.250 FPS (1536 SPF)
Compression mode : Lossy
Stream size : 583 MiB (1%)
Title : AVO [kyberpunk]
Language : Russian
Service kind : Complete Main
Default : No
Forced : No

Audio #5
ID : 6
Format : AC-3
Format/Info : Audio Coding 3
Commercial name : Dolby Digital
Codec ID : A_AC3
Duration : 2 h 7 min
Bit rate mode : Constant
Bit rate : 384 kb/s
Channel(s) : 6 channels
Channel layout : L R C LFE Ls Rs
Sampling rate : 48.0 kHz
Frame rate : 31.250 FPS (1536 SPF)
Compression mode : Lossy
Stream size : 350 MiB (1%)
Title : MVO [HDRezka / DniproFilm]
Language : Ukrainian
Service kind : Complete Main
Default : No
Forced : No

Audio #6
ID : 7
Format : MLP FBA 16-ch
Format/Info : Meridian Lossless Packing FBA with 16-channel presentation
Commercial name : Dolby TrueHD with Dolby Atmos
Codec ID : A_TRUEHD
Duration : 2 h 7 min
Bit rate mode : Variable
Bit rate : 4 861 kb/s
Maximum bit rate : 8 280 kb/s
Channel(s) : 8 channels
Channel layout : L R C LFE Ls Rs Lb Rb
Sampling rate : 48.0 kHz
Frame rate : 1 200.000 FPS (40 SPF)
Compression mode : Lossless
Stream size : 4.32 GiB (8%)
Title : Original
Language : English
Default : No
Forced : No
Number of dynamic objects : 13
Bed channel count : 1 channel
Bed channel configuration : LFE

Audio #7
ID : 8
Format : AC-3
Format/Info : Audio Coding 3
Commercial name : Dolby Digital
Codec ID : A_AC3
Duration : 2 h 7 min
Bit rate mode : Constant
Bit rate : 640 kb/s
Channel(s) : 6 channels
Channel layout : L R C LFE Ls Rs
Sampling rate : 48.0 kHz
Frame rate : 31.250 FPS (1536 SPF)
Compression mode : Lossy
Stream size : 583 MiB (1%)
Language : English
Service kind : Complete Main
Default : No
Forced : No

Text #1
ID : 9
Format : UTF-8
Codec ID : S_TEXT/UTF8
Codec ID/Info : UTF-8 Plain Text
Duration : 1 h 48 min
Bit rate : 5 b/s
Count of elements : 114
Stream size : 4.33 KiB (0%)
Title : Forced
Language : Russian
Default : No
Forced : No

Text #2
ID : 10
Format : UTF-8
Codec ID : S_TEXT/UTF8
Codec ID/Info : UTF-8 Plain Text
Duration : 1 h 58 min
Bit rate : 81 b/s
Count of elements : 1482
Stream size : 71.0 KiB (0%)
Title : Full v.1
Language : Russian
Default : No
Forced : No

Text #3
ID : 11
Format : UTF-8
Codec ID : S_TEXT/UTF8
Codec ID/Info : UTF-8 Plain Text
Duration : 1 h 56 min
Bit rate : 100 b/s
Count of elements : 1542
Stream size : 85.7 KiB (0%)
Title : Full v.2
Language : Russian
Default : No
Forced : No

Text #4
ID : 12
Format : UTF-8
Codec ID : S_TEXT/UTF8
Codec ID/Info : UTF-8 Plain Text
Duration : 1 h 52 min
Bit rate : 4 b/s
Count of elements : 76
Stream size : 3.40 KiB (0%)
Title : Forced [HDRezka]
Language : Ukrainian
Default : No
Forced : No

Text #5
ID : 13
Format : UTF-8
Codec ID : S_TEXT/UTF8
Codec ID/Info : UTF-8 Plain Text
Duration : 2 h 6 min
Bit rate : 55 b/s
Count of elements : 1643
Stream size : 51.1 KiB (0%)
Title : English
Language : English
Default : No
Forced : No

Text #6
ID : 14
Format : UTF-8
Codec ID : S_TEXT/UTF8
Codec ID/Info : UTF-8 Plain Text
Duration : 2 h 6 min
Bit rate : 65 b/s
Count of elements : 2079
Stream size : 61.0 KiB (0%)
Title : English [SDH]
Language : English
Default : No
Forced : No

Text #7
ID : 15
Format : UTF-8
Codec ID : S_TEXT/UTF8
Codec ID/Info : UTF-8 Plain Text
Duration : 1 h 16 min
Bit rate : 3 b/s
Count of elements : 68
Stream size : 1.76 KiB (0%)
Title : English [Forced]
Language : English
Default : No
Forced : No

Menu
00:00:00.000 : Глава 01
00:03:16.154 : Глава 02
00:09:20.435 : Глава 03
00:14:44.801 : Глава 04
00:17:48.859 : Глава 05
00:22:35.854 : Глава 06
00:26:23.415 : Глава 07
00:31:19.044 : Глава 08
00:32:54.055 : Глава 09
00:36:55.046 : Глава 10
00:41:08.883 : Глава 11
00:44:18.656 : Глава 12
00:46:25.157 : Глава 13
00:48:58.102 : Глава 14
00:53:53.480 : Глава 15
00:57:06.757 : Глава 16
00:58:59.828 : Глава 17
01:03:08.994 : Глава 18
01:07:11.110 : Глава 19
01:13:45.421 : Глава 20
01:17:04.620 : Глава 21
01:18:26.243 : Глава 22
01:24:44.955 : Глава 23
01:26:34.314 : Глава 24
01:28:21.171 : Глава 25
01:35:22.759 : Глава 26
01:36:46.467 : Глава 27
01:42:55.544 : Глава 28
01:54:20.270 : Глава 29
01:57:05.268 : Глава 30




Скачать Круиз по джунглям через торрент https://st-kp-yandex-net.translate.goog/images/film_iphone/iphone360_462059.jpg Скачать, смотреть онлайн Круиз по джунглям бесплантно в хорошем качестве Описание: Отважная исследовательница дикой природы Лили Хоутон намерена отправиться в верховья Амазонки, чтобы найти легендарное дерево, ... 9.9 10 23
Торрент: Зарегистрирован [2021-10-01 09:13] · скачан: 168 раз
Статус: √ проверено
Размер: 54.46 GB
Как cкачать? Как скачать Круиз по джунглям через торрент | UTorrent

% Раздел Тема Автор DL S | L
Фильмы 2021 [DVDrip, WEB-DLRip, HDrip] (DUB, MVO) [ 763 MB ] Круиз по джунглям / Jungle Cruise | iTunes | HDRip, Дубляж coc900 Скачать
11 | 0
Фильмы (HD 720p, 1080p) (48-60 fps) [ 4.3 GB ] Круиз по джунглям / Jungle Cruise | DUB | 1080p 10 bit 60 FPS, DUB, AVO dd2d3 Скачать
2 | 0
Фильмы 2021 [DVDrip, WEB-DLRip, HDrip] (DUB, MVO) [ 2.18 GB ] Круиз по джунглям / Jungle Cruise | Лицензия | BDRip Twi7ter Скачать
22 | 1
Фильмы 2021 [DVDrip, WEB-DLRip, HDrip] (DUB, MVO) [ 1.47 GB ] Круиз по джунглям / Jungle Cruise | Лицензия | BDRip Twi7ter Скачать
39 | 2
Фильмы [HD 720p, 1080p] (Хороший звук DUB, MVO) [ 10.56 GB ] Круиз по джунглям / Jungle Cruise | HDRezka Studio | 1080p bober100 Скачать
2 | 0
Фильмы [HD 720p, 1080p] (Хороший звук DUB, MVO) [ 6.57 GB ] Круиз по джунглям / Jungle Cruise | HDRezka Studio | 720p bober100 Скачать
3 | 0
Фильмы 2021 [DVDrip, WEB-DLRip, HDrip] (DUB, MVO) [ 1.46 GB ] Круиз по джунглям / Jungle Cruise | DUB | BDRip bober100 Скачать
2 | 0

28-11-2019 20:33  


Отключить вcю реклaмy на сайте, в т.ч. и в плеере онлайн просмотра!

17-10-2021 08:57 Круиз по джунглям Скачать торрент  

картинка отличная звук тожее... да и сам фильм ничего так...



    Дорогой пользователь! Огромная просьба, поблагодарите релизера, оцените раздачу и оставьте свои комментарий, если Вы скачали Круиз по джунглям через торрент бесплатно!!
    Комментировать посты могут только пользователи прошедшие не сложную регистрацию
    Показать сообщения:    


    Круиз по джунглям через торрент
    Скачать бесплатно Круиз по джунглям
    Круиз по джунглям скачать торрент
    Круиз по джунглям смотреть онлайн
    Cкачать фильм Круиз по джунглям бесплатно
    Круиз по джунглям скачать торрент в хорошем качестве
    Круиз по джунглям смотреть онлайн бесплатно в хорошем качестве
    Вы не можете начинать темы
    Вы не можете отвечать на сообщения
    Вы не можете редактировать свои сообщения
    Вы не можете удалять свои сообщения
    Вы не можете голосовать в опросах
    Вы не можете прикреплять файлы к сообщениям
    Вы можете скачивать файлы
    Круиз по джунглям / Jungle Cruise [2021, Приключения, комедия, фэнтези, UHD BDRemux 2160p] Дубляж [Невафильм] +MVO [HDRezka] +AVO [М. Яроцкий ] смотреть онлайн, скачать торрент picoco.icu