>

5.6

iTunes

6.1

MVO

5.7

MVO

1

7.4

1 сезон

6.8

iTunes

7.2

1 сезон

13

6.7

1 сезон

8.3

RePack

30

Deluxe

pack

9.9

Лицензия

ВАЖНО

ИГРА 18+

pack

7.3

RePack

MK11

7.7

RePack

jed

7.8

RePack

fifa19

8.5

RePack

RDR2

RePack

NEED FOR SPEED™ PAYBACK

4 сезон

9 сезон

Бесстыжие 9 сезон

Все сериалы

все сериалы на PB.wtf

RePack

FAR CRY 5

Anonymous, добрый день, мы катастрофически не успеваем собрать деньги на оплату серверов, помогите нам пожалуйста 5,10,15р., для нас важна любая помощь . В качестве благодарности мы отключим Вам всю рекламу на сайте (укажите свой ник в строку Ваше имя)!

×
  
Magnet ссылка

Metallica & San Francisco Symphony - S&M2 [2020, Thrash Metal, Blu-ray, 1080p] piratbit.org

Metallica & San Francisco Symphony - S&M2 через торрент piratbit.org

Раздают: 1 [ 0 KB/s ]
Размер: 43.1 GB | Добавлен: 1 мес. 20 д. назад | Торрент скачан:18 раз
Смотреть онлайн Metallica & San Francisco Symphony - S&M2 | Скачать    Ребята, помогите собрать деньги на оплату серверов!!!

04-08-2021 08:13 Metallica & San Francisco Symphony - S&M2 Скачать торрент  


Metallica & San Francisco Symphony - S&M2

Год выпуска: 2020
Страна: USA
Жанр:Thrash Metal
Режиссер: Michael Tilson Thomas
Продолжительность: 02:28:46+00:06:52

Качество видео: Blu-ray
Контейнер: BDMV
Стандарт разрешения: 1080p
Видео кодек: H.264
Аудио кодек: DTS, PCM
Видео: MPEG-4 AVC Video / 29944 kbps / 1080p / 23.976 fps / 16:9 / High Profile 4.1
Аудио: English / LPCM Audio / 2.0 / 48 kHz / 2304 kbps / 24-bit
Аудио: English / DTS-HD Master Audio / 5.1 / 48 kHz / 4917 kbps / 24-bit (DTS Core: 5.1 / 48 kHz / 1509 kbps / 24-bit)


S & M2, Концерт Metallica и The San Francisco Symphony, является концертным событием года!
Эта концертная запись включает 20 песен (более 2,5 часов музыки) с двухдневного мероприятия, открывшего новый Chase Center в Сан-Франциско, с любимыми многими фанатами Metallica и двумя уникальными классическими песнями, выбранными музыкальным директором симфонической музыки Сан-Франциско Майклом Тилсоном Томасом.
S & M2 был недавно отредактирован группой с ремикшированием и переработанным звуком для совершенно нового внешнего вида и звука из оригинального театрального представления в октябре 2019 года.


01. Intro (features "Wherever I May Roam" and "All Within My Hands")
02. The Ecstasy of Gold (Live)
03. The Call of Ktulu (Live)
04. For Whom the Bell Tolls (Live)
05. The Day That Never Comes (Live)
06. The Memory Remains (Live)
07. Confusion (Live)
08. Moth Into Flame (Live)
09. The Outlaw Torn (Live)
10. No Leaf Clover (Live)
11. Halo on Fire (Live)
12. Intro to Scythian Suite (Live)
13. Scythian Suite, Opus 20 II: The Enemy God And The Dance Of The Dark Spirits (Live)
14. Intro to The Iron Foundry (Live)
15. The Iron Foundry, Opus 19 (Live)
16. The Unforgiven III (Live)
17. All Within My Hands (Live)
18. (Anesthesia) - Pulling Teeth (Live)
19. Wherever I May Roam (Live)
20. One (Live)
21. Master of Puppets (Live)
22. Nothing Else Matters (Live)
23. Enter Sandman (Live)

Бонусы:
01. Behind the Scenes: Making of the Show (00:06:52)
02. All Within My Hands Promo (00:03:06)
Disc Title: Metallica - San Francisco Symphony [Blu-Ray, 2020] 1080 (sergej644)
Disc Size: 46 279 856 672 bytes
Protection: AACS
BD-Java: Yes
BDInfo: 0.5.8

Notes:

BDINFO HOME:
Cinema Squid

INCLUDES FORUMS REPORT FOR:
AVS Forum Blu-ray Audio and Video Specifications Thread

********************
PLAYLIST: 00001.MPLS
********************

<--- BEGIN FORUMS PASTE --->

Код:

Total   Video
Title                                                           Codec   Length  Movie Size      Disc Size       Bitrate Bitrate Main Audio Track                          Secondary Audio Track
-----                                                           ------  ------- --------------  --------------  ------- ------- ------------------                        ---------------------
00001.MPLS                                                      AVC     2:28:48 43 709 083 008  46 279 856 672  39,16   29,94   LPCM 2.0 2304Kbps (48kHz/24-bit)          DTS-HD Master 5.1 4917Kbps (48kHz/24-bit)

Код:

DISC INFO:

Disc Title:     Metallica - San Francisco Symphony  [Blu-Ray, 2020] 1080 (sergej644)
Disc Size:      46 279 856 672 bytes
Protection:     AACS
BD-Java:        Yes
BDInfo:         0.5.8

PLAYLIST REPORT:

Name:                   00001.MPLS
Length:                 2:28:48.336 (h:m:s.ms)
Size:                   43 709 083 008 bytes
Total Bitrate:          39,16 Mbps

VIDEO:

Codec                   Bitrate             Description
-----                   -------             -----------
MPEG-4 AVC Video        29944 kbps          1080p / 23,976 fps / 16:9 / High Profile 4.1

AUDIO:

Codec                           Language        Bitrate         Description
-----                           --------        -------         -----------
LPCM Audio                      English         2304 kbps       2.0 / 48 kHz / 2304 kbps / 24-bit
DTS-HD Master Audio             English         4917 kbps       5.1 / 48 kHz / 4917 kbps / 24-bit (DTS Core: 5.1 / 48 kHz / 1509 kbps / 24-bit)

FILES:

Name            Time In         Length          Size            Total Bitrate
----            -------         ------          ----            -------------
00001.M2TS      0:00:00.000     2:28:48.336     43 709 083 008  39 164

CHAPTERS:

Number          Time In         Length          Avg Video Rate  Max 1-Sec Rate  Max 1-Sec Time  Max 5-Sec Rate  Max 5-Sec Time  Max 10Sec Rate  Max 10Sec Time  Avg Frame Size  Max Frame Size  Max Frame Time
------          -------         ------          --------------  --------------  --------------  --------------  --------------  --------------  --------------  --------------  --------------  --------------
1               0:00:00.000     2:28:48.336     29 945 kbps     58 564 kbps     00:00:34.325    41 458 kbps     01:59:26.242    38 940 kbps     02:27:56.742    156 119 bytes   776 451 bytes   02:22:57.986

STREAM DIAGNOSTICS:

File            PID             Type            Codec           Language                Seconds                 Bitrate                 Bytes           Packets
----            ---             ----            -----           --------                --------------          --------------          -------------   -----
00001.M2TS      4113 (0x1011)   0x1B            AVC                                     8928,211                29 945                  33 419 464 319  181 755 942
00001.M2TS      4352 (0x1100)   0x80            LPCM            eng (English)           8928,211                2 310                   2 578 503 148   14 285 343
00001.M2TS      4353 (0x1101)   0x86            DTS-HD MA       eng (English)           8928,211                4 917                   5 487 076 096   31 213 455

<---- END FORUMS PASTE ---->

QUICK SUMMARY:

Disc Title: Metallica - San Francisco Symphony [Blu-Ray, 2020] 1080 (sergej644)
Disc Size: 46 279 856 672 bytes
Protection: AACS
BD-Java: Yes
Playlist: 00001.MPLS
Size: 43 709 083 008 bytes
Length: 2:28:48.336
Total Bitrate: 39,16 Mbps
Video: MPEG-4 AVC Video / 29944 kbps / 1080p / 23,976 fps / 16:9 / High Profile 4.1
Audio: English / LPCM Audio / 2.0 / 48 kHz / 2304 kbps / 24-bit
Audio: English / DTS-HD Master Audio / 5.1 / 48 kHz / 4917 kbps / 24-bit (DTS Core: 5.1 / 48 kHz / 1509 kbps / 24-bit)

********************
PLAYLIST: 01001.MPLS
********************

<--- BEGIN FORUMS PASTE --->

Код:

Total   Video
Title                                                           Codec   Length  Movie Size      Disc Size       Bitrate Bitrate Main Audio Track                          Secondary Audio Track
-----                                                           ------  ------- --------------  --------------  ------- ------- ------------------                        ---------------------
01001.MPLS                                                      AVC     2:28:48 43 709 083 008  46 279 856 672  39,16   29,94   LPCM 2.0 2304Kbps (48kHz/24-bit)          DTS-HD Master 5.1 4917Kbps (48kHz/24-bit)

Код:

DISC INFO:

Disc Title:     Metallica - San Francisco Symphony  [Blu-Ray, 2020] 1080 (sergej644)
Disc Size:      46 279 856 672 bytes
Protection:     AACS
BD-Java:        Yes
BDInfo:         0.5.8

PLAYLIST REPORT:

Name:                   01001.MPLS
Length:                 2:28:48.336 (h:m:s.ms)
Size:                   43 709 083 008 bytes
Total Bitrate:          39,16 Mbps

VIDEO:

Codec                   Bitrate             Description
-----                   -------             -----------
MPEG-4 AVC Video        29944 kbps          1080p / 23,976 fps / 16:9 / High Profile 4.1

AUDIO:

Codec                           Language        Bitrate         Description
-----                           --------        -------         -----------
LPCM Audio                      English         2304 kbps       2.0 / 48 kHz / 2304 kbps / 24-bit
DTS-HD Master Audio             English         4917 kbps       5.1 / 48 kHz / 4917 kbps / 24-bit (DTS Core: 5.1 / 48 kHz / 1509 kbps / 24-bit)

FILES:

Name            Time In         Length          Size            Total Bitrate
----            -------         ------          ----            -------------
00001.M2TS      0:00:00.000     2:28:48.336     43 709 083 008  39 164

CHAPTERS:

Number          Time In         Length          Avg Video Rate  Max 1-Sec Rate  Max 1-Sec Time  Max 5-Sec Rate  Max 5-Sec Time  Max 10Sec Rate  Max 10Sec Time  Avg Frame Size  Max Frame Size  Max Frame Time
------          -------         ------          --------------  --------------  --------------  --------------  --------------  --------------  --------------  --------------  --------------  --------------
1               0:00:00.000     0:01:38.348     22 935 kbps     58 564 kbps     00:00:34.325    37 787 kbps     00:00:40.290    35 508 kbps     00:00:40.206    119 524 bytes   520 499 bytes   00:00:48.882
2               0:01:38.348     0:02:56.301     24 950 kbps     47 599 kbps     00:03:20.700    40 372 kbps     00:02:26.229    37 289 kbps     00:03:14.152    130 079 bytes   522 449 bytes   00:03:11.191
3               0:04:34.649     0:09:14.971     29 039 kbps     52 333 kbps     00:11:02.328    38 162 kbps     00:07:42.879    37 397 kbps     00:10:31.297    151 396 bytes   574 102 bytes   00:09:45.876
4               0:13:49.620     0:04:36.067     28 194 kbps     51 415 kbps     00:14:14.895    36 923 kbps     00:17:20.205    34 325 kbps     00:17:30.132    146 992 bytes   644 529 bytes   00:14:07.513
5               0:18:25.687     0:08:27.173     29 777 kbps     47 895 kbps     00:19:05.477    40 485 kbps     00:25:45.710    36 615 kbps     00:25:40.872    155 243 bytes   712 176 bytes   00:23:18.688
6               0:26:52.861     0:05:42.216     29 051 kbps     48 403 kbps     00:28:58.862    39 150 kbps     00:28:33.461    36 122 kbps     00:28:03.056    151 458 bytes   697 155 bytes   00:32:32.033
7               0:32:35.078     0:06:41.317     31 991 kbps     48 070 kbps     00:38:41.569    40 403 kbps     00:36:47.872    37 963 kbps     00:36:17.008    166 787 bytes   756 883 bytes   00:38:41.861
8               0:39:16.395     0:06:15.249     31 809 kbps     52 630 kbps     00:45:02.408    38 836 kbps     00:42:04.355    36 206 kbps     00:43:02.288    165 840 bytes   607 080 bytes   00:43:36.280
9               0:45:31.645     0:09:59.098     29 996 kbps     54 513 kbps     00:54:21.883    39 722 kbps     00:47:46.280    37 695 kbps     00:46:14.855    156 388 bytes   643 971 bytes   00:48:23.066
10              0:55:30.744     0:05:32.915     29 036 kbps     50 646 kbps     00:59:36.656    39 855 kbps     00:59:35.113    36 576 kbps     00:57:07.924    151 382 bytes   503 435 bytes   00:56:33.598
11              1:01:03.660     0:08:15.077     31 345 kbps     54 156 kbps     01:09:00.386    39 048 kbps     01:08:18.344    37 031 kbps     01:05:48.152    163 420 bytes   627 662 bytes   01:05:25.296
12              1:09:18.737     0:05:14.689     30 601 kbps     52 048 kbps     01:13:43.460    39 648 kbps     01:12:16.248    37 984 kbps     01:13:35.536    159 541 bytes   663 398 bytes   01:10:25.304
13              1:14:33.427     0:03:39.844     29 563 kbps     45 636 kbps     01:15:39.493    38 695 kbps     01:14:58.869    36 419 kbps     01:17:22.304    154 129 bytes   584 823 bytes   01:17:58.757
14              1:18:13.271     0:01:02.812     27 782 kbps     35 353 kbps     01:18:20.696    34 077 kbps     01:18:18.110    32 567 kbps     01:18:17.943    144 843 bytes   447 773 bytes   01:19:09.202
15              1:19:16.084     0:04:30.103     29 158 kbps     47 793 kbps     01:22:58.264    38 970 kbps     01:22:55.220    37 600 kbps     01:22:50.465    152 015 bytes   675 377 bytes   01:23:13.697
16              1:23:46.187     0:08:26.964     29 714 kbps     44 835 kbps     01:25:20.824    38 687 kbps     01:25:19.781    36 842 kbps     01:25:20.156    154 918 bytes   578 428 bytes   01:32:09.357
17              1:32:13.152     0:06:22.423     29 661 kbps     45 275 kbps     01:36:07.636    37 878 kbps     01:37:17.456    35 982 kbps     01:33:52.835    154 641 bytes   531 332 bytes   01:36:57.853
18              1:38:35.576     0:07:24.527     28 772 kbps     45 632 kbps     01:43:47.304    39 068 kbps     01:39:28.337    36 446 kbps     01:39:52.528    150 005 bytes   623 213 bytes   01:45:52.137
19              1:46:00.103     0:07:05.800     31 008 kbps     48 121 kbps     01:48:06.480    39 132 kbps     01:47:54.509    37 178 kbps     01:51:43.405    161 660 bytes   610 014 bytes   01:47:56.386
20              1:53:05.904     0:09:21.185     29 825 kbps     47 149 kbps     01:59:28.703    41 458 kbps     01:59:26.242    37 542 kbps     01:55:59.661    155 496 bytes   652 367 bytes   01:53:07.864
21              2:02:27.089     0:08:32.762     31 722 kbps     46 877 kbps     02:04:05.062    39 852 kbps     02:08:24.947    36 406 kbps     02:03:58.681    165 385 bytes   714 554 bytes   02:10:39.039
22              2:10:59.852     0:06:40.566     29 983 kbps     46 353 kbps     02:16:00.527    39 389 kbps     02:14:01.783    36 388 kbps     02:13:57.112    156 320 bytes   537 880 bytes   02:13:13.777
23              2:17:40.418     0:07:04.006     31 860 kbps     51 074 kbps     02:22:57.944    40 529 kbps     02:22:49.269    37 984 kbps     02:22:49.143    166 106 bytes   776 451 bytes   02:22:57.986
24              2:24:44.425     0:04:02.742     29 471 kbps     46 701 kbps     02:27:11.531    39 960 kbps     02:27:57.785    38 940 kbps     02:27:56.742    153 648 bytes   719 153 bytes   02:26:05.506
25              2:28:47.168     0:00:01.167     29 kbps         33 kbps         02:28:47.168    0 kbps          00:00:00.000    0 kbps          00:00:00.000    171 bytes       674 bytes       02:28:47.960

STREAM DIAGNOSTICS:

File            PID             Type            Codec           Language                Seconds                 Bitrate                 Bytes           Packets
----            ---             ----            -----           --------                --------------          --------------          -------------   -----
00001.M2TS      4113 (0x1011)   0x1B            AVC                                     8928,211                29 945                  33 419 464 319  181 755 942
00001.M2TS      4352 (0x1100)   0x80            LPCM            eng (English)           8928,211                2 310                   2 578 503 148   14 285 343
00001.M2TS      4353 (0x1101)   0x86            DTS-HD MA       eng (English)           8928,211                4 917                   5 487 076 096   31 213 455

<---- END FORUMS PASTE ---->

QUICK SUMMARY:

Disc Title: Metallica - San Francisco Symphony [Blu-Ray, 2020] 1080 (sergej644)
Disc Size: 46 279 856 672 bytes
Protection: AACS
BD-Java: Yes
Playlist: 01001.MPLS
Size: 43 709 083 008 bytes
Length: 2:28:48.336
Total Bitrate: 39,16 Mbps
Video: MPEG-4 AVC Video / 29944 kbps / 1080p / 23,976 fps / 16:9 / High Profile 4.1
Audio: English / LPCM Audio / 2.0 / 48 kHz / 2304 kbps / 24-bit
Audio: English / DTS-HD Master Audio / 5.1 / 48 kHz / 4917 kbps / 24-bit (DTS Core: 5.1 / 48 kHz / 1509 kbps / 24-bit)

********************
PLAYLIST: 00002.MPLS
********************

<--- BEGIN FORUMS PASTE --->

Код:

Total   Video
Title                                                           Codec   Length  Movie Size      Disc Size       Bitrate Bitrate Main Audio Track                          Secondary Audio Track
-----                                                           ------  ------- --------------  --------------  ------- ------- ------------------                        ---------------------
00002.MPLS                                                      AVC     0:06:52 1 694 954 880   46 279 856 672  32,88   24,98   LPCM 2.0 2304Kbps (48kHz/24-bit)          DTS-HD Master 5.1 3852Kbps (48kHz/24-bit)

Код:

DISC INFO:

Disc Title:     Metallica - San Francisco Symphony  [Blu-Ray, 2020] 1080 (sergej644)
Disc Size:      46 279 856 672 bytes
Protection:     AACS
BD-Java:        Yes
BDInfo:         0.5.8

PLAYLIST REPORT:

Name:                   00002.MPLS
Length:                 0:06:52.412 (h:m:s.ms)
Size:                   1 694 954 880 bytes
Total Bitrate:          32,88 Mbps

VIDEO:

Codec                   Bitrate             Description
-----                   -------             -----------
MPEG-4 AVC Video        24983 kbps          1080p / 23,976 fps / 16:9 / High Profile 4.1

AUDIO:

Codec                           Language        Bitrate         Description
-----                           --------        -------         -----------
LPCM Audio                      English         2304 kbps       2.0 / 48 kHz / 2304 kbps / 24-bit
DTS-HD Master Audio             English         3852 kbps       5.1 / 48 kHz / 3852 kbps / 24-bit (DTS Core: 5.1 / 48 kHz / 1509 kbps / 24-bit)

FILES:

Name            Time In         Length          Size            Total Bitrate
----            -------         ------          ----            -------------
00002.M2TS      0:00:00.000     0:06:52.412     1 694 954 880   32 876

CHAPTERS:

Number          Time In         Length          Avg Video Rate  Max 1-Sec Rate  Max 1-Sec Time  Max 5-Sec Rate  Max 5-Sec Time  Max 10Sec Rate  Max 10Sec Time  Avg Frame Size  Max Frame Size  Max Frame Time
------          -------         ------          --------------  --------------  --------------  --------------  --------------  --------------  --------------  --------------  --------------  --------------
1               0:00:00.000     0:06:52.412     24 986 kbps     39 018 kbps     00:04:09.499    35 423 kbps     00:05:56.522    34 678 kbps     00:05:57.315    130 290 bytes   291 063 bytes   00:04:08.748

STREAM DIAGNOSTICS:

File            PID             Type            Codec           Language                Seconds                 Bitrate                 Bytes           Packets
----            ---             ----            -----           --------                --------------          --------------          -------------   -----
00002.M2TS      4113 (0x1011)   0x1B            AVC                                     412,329                 24 991                  1 288 043 845   7 006 127
00002.M2TS      4352 (0x1100)   0x80            LPCM            eng (English)           412,329                 2 311                   119 105 452     659 864
00002.M2TS      4353 (0x1101)   0x86            DTS-HD MA       eng (English)           412,329                 3 853                   198 577 116     1 143 561

<---- END FORUMS PASTE ---->

QUICK SUMMARY:

Disc Title: Metallica - San Francisco Symphony [Blu-Ray, 2020] 1080 (sergej644)
Disc Size: 46 279 856 672 bytes
Protection: AACS
BD-Java: Yes
Playlist: 00002.MPLS
Size: 1 694 954 880 bytes
Length: 0:06:52.412
Total Bitrate: 32,88 Mbps
Video: MPEG-4 AVC Video / 24983 kbps / 1080p / 23,976 fps / 16:9 / High Profile 4.1
Audio: English / LPCM Audio / 2.0 / 48 kHz / 2304 kbps / 24-bit
Audio: English / DTS-HD Master Audio / 5.1 / 48 kHz / 3852 kbps / 24-bit (DTS Core: 5.1 / 48 kHz / 1509 kbps / 24-bit)

********************
PLAYLIST: 01002.MPLS
********************

<--- BEGIN FORUMS PASTE --->

Код:

Total   Video
Title                                                           Codec   Length  Movie Size      Disc Size       Bitrate Bitrate Main Audio Track                          Secondary Audio Track
-----                                                           ------  ------- --------------  --------------  ------- ------- ------------------                        ---------------------
01002.MPLS                                                      AVC     0:06:52 1 694 954 880   46 279 856 672  32,88   24,98   LPCM 2.0 2304Kbps (48kHz/24-bit)          DTS-HD Master 5.1 3852Kbps (48kHz/24-bit)

Код:

DISC INFO:

Disc Title:     Metallica - San Francisco Symphony  [Blu-Ray, 2020] 1080 (sergej644)
Disc Size:      46 279 856 672 bytes
Protection:     AACS
BD-Java:        Yes
BDInfo:         0.5.8

PLAYLIST REPORT:

Name:                   01002.MPLS
Length:                 0:06:52.412 (h:m:s.ms)
Size:                   1 694 954 880 bytes
Total Bitrate:          32,88 Mbps

VIDEO:

Codec                   Bitrate             Description
-----                   -------             -----------
MPEG-4 AVC Video        24983 kbps          1080p / 23,976 fps / 16:9 / High Profile 4.1

AUDIO:

Codec                           Language        Bitrate         Description
-----                           --------        -------         -----------
LPCM Audio                      English         2304 kbps       2.0 / 48 kHz / 2304 kbps / 24-bit
DTS-HD Master Audio             English         3852 kbps       5.1 / 48 kHz / 3852 kbps / 24-bit (DTS Core: 5.1 / 48 kHz / 1509 kbps / 24-bit)

FILES:

Name            Time In         Length          Size            Total Bitrate
----            -------         ------          ----            -------------
00002.M2TS      0:00:00.000     0:06:52.412     1 694 954 880   32 876

CHAPTERS:

Number          Time In         Length          Avg Video Rate  Max 1-Sec Rate  Max 1-Sec Time  Max 5-Sec Rate  Max 5-Sec Time  Max 10Sec Rate  Max 10Sec Time  Avg Frame Size  Max Frame Size  Max Frame Time
------          -------         ------          --------------  --------------  --------------  --------------  --------------  --------------  --------------  --------------  --------------  --------------
1               0:00:00.000     0:06:51.244     25 056 kbps     39 018 kbps     00:04:09.499    35 423 kbps     00:05:56.522    34 678 kbps     00:05:57.315    130 619 bytes   291 063 bytes   00:04:08.748
2               0:06:51.244     0:00:01.167     29 kbps         33 kbps         00:06:51.244    0 kbps          00:00:00.000    0 kbps          00:00:00.000    169 bytes       672 bytes       00:06:51.494

STREAM DIAGNOSTICS:

File            PID             Type            Codec           Language                Seconds                 Bitrate                 Bytes           Packets
----            ---             ----            -----           --------                --------------          --------------          -------------   -----
00002.M2TS      4113 (0x1011)   0x1B            AVC                                     412,329                 24 991                  1 288 043 845   7 006 127
00002.M2TS      4352 (0x1100)   0x80            LPCM            eng (English)           412,329                 2 311                   119 105 452     659 864
00002.M2TS      4353 (0x1101)   0x86            DTS-HD MA       eng (English)           412,329                 3 853                   198 577 116     1 143 561

<---- END FORUMS PASTE ---->

QUICK SUMMARY:

Disc Title: Metallica - San Francisco Symphony [Blu-Ray, 2020] 1080 (sergej644)
Disc Size: 46 279 856 672 bytes
Protection: AACS
BD-Java: Yes
Playlist: 01002.MPLS
Size: 1 694 954 880 bytes
Length: 0:06:52.412
Total Bitrate: 32,88 Mbps
Video: MPEG-4 AVC Video / 24983 kbps / 1080p / 23,976 fps / 16:9 / High Profile 4.1
Audio: English / LPCM Audio / 2.0 / 48 kHz / 2304 kbps / 24-bit
Audio: English / DTS-HD Master Audio / 5.1 / 48 kHz / 3852 kbps / 24-bit (DTS Core: 5.1 / 48 kHz / 1509 kbps / 24-bit)

********************
PLAYLIST: 00003.MPLS
********************

<--- BEGIN FORUMS PASTE --->

Код:

Total   Video
Title                                                           Codec   Length  Movie Size      Disc Size       Bitrate Bitrate Main Audio Track                          Secondary Audio Track
-----                                                           ------  ------- --------------  --------------  ------- ------- ------------------                        ---------------------
00003.MPLS                                                      AVC     0:03:06 763 530 624     46 279 856 672  32,80   24,96   LPCM 2.0 2304Kbps (48kHz/24-bit)          DTS-HD Master 5.1 3796Kbps (48kHz/24-bit)

Код:

DISC INFO:

Disc Title:     Metallica - San Francisco Symphony  [Blu-Ray, 2020] 1080 (sergej644)
Disc Size:      46 279 856 672 bytes
Protection:     AACS
BD-Java:        Yes
BDInfo:         0.5.8

PLAYLIST REPORT:

Name:                   00003.MPLS
Length:                 0:03:06.227 (h:m:s.ms)
Size:                   763 530 624 bytes
Total Bitrate:          32,80 Mbps

VIDEO:

Codec                   Bitrate             Description
-----                   -------             -----------
MPEG-4 AVC Video        24959 kbps          1080p / 23,976 fps / 16:9 / High Profile 4.1

AUDIO:

Codec                           Language        Bitrate         Description
-----                           --------        -------         -----------
LPCM Audio                      English         2304 kbps       2.0 / 48 kHz / 2304 kbps / 24-bit
DTS-HD Master Audio             English         3796 kbps       5.1 / 48 kHz / 3796 kbps / 24-bit (DTS Core: 5.1 / 48 kHz / 1509 kbps / 24-bit)

FILES:

Name            Time In         Length          Size            Total Bitrate
----            -------         ------          ----            -------------
00003.M2TS      0:00:00.000     0:03:06.227     763 530 624     32 793

CHAPTERS:

Number          Time In         Length          Avg Video Rate  Max 1-Sec Rate  Max 1-Sec Time  Max 5-Sec Rate  Max 5-Sec Time  Max 10Sec Rate  Max 10Sec Time  Avg Frame Size  Max Frame Size  Max Frame Time
------          -------         ------          --------------  --------------  --------------  --------------  --------------  --------------  --------------  --------------  --------------  --------------
1               0:00:00.000     0:03:06.227     24 965 kbps     41 012 kbps     00:00:34.951    37 152 kbps     00:00:31.948    34 665 kbps     00:00:26.234    130 214 bytes   484 688 bytes   00:02:42.871

STREAM DIAGNOSTICS:

File            PID             Type            Codec           Language                Seconds                 Bitrate                 Bytes           Packets
----            ---             ----            -----           --------                --------------          --------------          -------------   -----
00003.M2TS      4113 (0x1011)   0x1B            AVC                                     186,144                 24 976                  581 144 824     3 161 036
00003.M2TS      4352 (0x1100)   0x80            LPCM            eng (English)           186,144                 2 311                   53 783 224      297 968
00003.M2TS      4353 (0x1101)   0x86            DTS-HD MA       eng (English)           186,144                 3 799                   88 384 424      509 422

<---- END FORUMS PASTE ---->

QUICK SUMMARY:

Disc Title: Metallica - San Francisco Symphony [Blu-Ray, 2020] 1080 (sergej644)
Disc Size: 46 279 856 672 bytes
Protection: AACS
BD-Java: Yes
Playlist: 00003.MPLS
Size: 763 530 624 bytes
Length: 0:03:06.227
Total Bitrate: 32,80 Mbps
Video: MPEG-4 AVC Video / 24959 kbps / 1080p / 23,976 fps / 16:9 / High Profile 4.1
Audio: English / LPCM Audio / 2.0 / 48 kHz / 2304 kbps / 24-bit
Audio: English / DTS-HD Master Audio / 5.1 / 48 kHz / 3796 kbps / 24-bit (DTS Core: 5.1 / 48 kHz / 1509 kbps / 24-bit)

********************
PLAYLIST: 01003.MPLS
********************

<--- BEGIN FORUMS PASTE --->

Код:

Total   Video
Title                                                           Codec   Length  Movie Size      Disc Size       Bitrate Bitrate Main Audio Track                          Secondary Audio Track
-----                                                           ------  ------- --------------  --------------  ------- ------- ------------------                        ---------------------
01003.MPLS                                                      AVC     0:03:06 763 530 624     46 279 856 672  32,80   24,96   LPCM 2.0 2304Kbps (48kHz/24-bit)          DTS-HD Master 5.1 3796Kbps (48kHz/24-bit)

Код:

DISC INFO:

Disc Title:     Metallica - San Francisco Symphony  [Blu-Ray, 2020] 1080 (sergej644)
Disc Size:      46 279 856 672 bytes
Protection:     AACS
BD-Java:        Yes
BDInfo:         0.5.8

PLAYLIST REPORT:

Name:                   01003.MPLS
Length:                 0:03:06.227 (h:m:s.ms)
Size:                   763 530 624 bytes
Total Bitrate:          32,80 Mbps

VIDEO:

Codec                   Bitrate             Description
-----                   -------             -----------
MPEG-4 AVC Video        24959 kbps          1080p / 23,976 fps / 16:9 / High Profile 4.1

AUDIO:

Codec                           Language        Bitrate         Description
-----                           --------        -------         -----------
LPCM Audio                      English         2304 kbps       2.0 / 48 kHz / 2304 kbps / 24-bit
DTS-HD Master Audio             English         3796 kbps       5.1 / 48 kHz / 3796 kbps / 24-bit (DTS Core: 5.1 / 48 kHz / 1509 kbps / 24-bit)

FILES:

Name            Time In         Length          Size            Total Bitrate
----            -------         ------          ----            -------------
00003.M2TS      0:00:00.000     0:03:06.227     763 530 624     32 793

CHAPTERS:

Number          Time In         Length          Avg Video Rate  Max 1-Sec Rate  Max 1-Sec Time  Max 5-Sec Rate  Max 5-Sec Time  Max 10Sec Rate  Max 10Sec Time  Avg Frame Size  Max Frame Size  Max Frame Time
------          -------         ------          --------------  --------------  --------------  --------------  --------------  --------------  --------------  --------------  --------------  --------------
1               0:00:00.000     0:03:05.018     25 128 kbps     41 012 kbps     00:00:34.951    37 152 kbps     00:00:31.948    34 665 kbps     00:00:26.234    130 976 bytes   484 688 bytes   00:02:42.871
2               0:03:05.018     0:00:01.209     29 kbps         33 kbps         00:03:05.018    0 kbps          00:00:00.000    0 kbps          00:00:00.000    168 bytes       672 bytes       00:03:05.977

STREAM DIAGNOSTICS:

File            PID             Type            Codec           Language                Seconds                 Bitrate                 Bytes           Packets
----            ---             ----            -----           --------                --------------          --------------          -------------   -----
00003.M2TS      4113 (0x1011)   0x1B            AVC                                     186,144                 24 976                  581 144 824     3 161 036
00003.M2TS      4352 (0x1100)   0x80            LPCM            eng (English)           186,144                 2 311                   53 783 224      297 968
00003.M2TS      4353 (0x1101)   0x86            DTS-HD MA       eng (English)           186,144                 3 799                   88 384 424      509 422

<---- END FORUMS PASTE ---->

QUICK SUMMARY:

Disc Title: Metallica - San Francisco Symphony [Blu-Ray, 2020] 1080 (sergej644)
Disc Size: 46 279 856 672 bytes
Protection: AACS
BD-Java: Yes
Playlist: 01003.MPLS
Size: 763 530 624 bytes
Length: 0:03:06.227
Total Bitrate: 32,80 Mbps
Video: MPEG-4 AVC Video / 24959 kbps / 1080p / 23,976 fps / 16:9 / High Profile 4.1
Audio: English / LPCM Audio / 2.0 / 48 kHz / 2304 kbps / 24-bit
Audio: English / DTS-HD Master Audio / 5.1 / 48 kHz / 3796 kbps / 24-bit (DTS Core: 5.1 / 48 kHz / 1509 kbps / 24-bit)

********************
PLAYLIST: 00000.MPLS
********************

<--- BEGIN FORUMS PASTE --->

Код:

Total   Video
Title                                                           Codec   Length  Movie Size      Disc Size       Bitrate Bitrate Main Audio Track                          Secondary Audio Track
-----                                                           ------  ------- --------------  --------------  ------- ------- ------------------                        ---------------------
00000.MPLS                                                      AVC     0:00:46 88 853 376      46 279 856 672  15,35   9,72    LPCM 2.0 2304Kbps (48kHz/24-bit)          DTS-HD Master 2.0 2304Kbps (48kHz/24-bit)

Код:

DISC INFO:

Disc Title:     Metallica - San Francisco Symphony  [Blu-Ray, 2020] 1080 (sergej644)
Disc Size:      46 279 856 672 bytes
Protection:     AACS
BD-Java:        Yes
BDInfo:         0.5.8

PLAYLIST REPORT:

Name:                   00000.MPLS
Length:                 0:00:46.296 (h:m:s.ms)
Size:                   88 853 376 bytes
Total Bitrate:          15,35 Mbps

VIDEO:

Codec                   Bitrate             Description
-----                   -------             -----------
MPEG-4 AVC Video        9720 kbps           1080p / 23,976 fps / 16:9 / High Profile 4.1

AUDIO:

Codec                           Language        Bitrate         Description
-----                           --------        -------         -----------
LPCM Audio                      English         2304 kbps       2.0 / 48 kHz / 2304 kbps / 24-bit
DTS-HD Master Audio             English         2304 kbps       2.0 / 48 kHz / 2304 kbps / 24-bit (DTS Core: 2.0 / 48 kHz / 1509 kbps / 24-bit)

FILES:

Name            Time In         Length          Size            Total Bitrate
----            -------         ------          ----            -------------
00000.M2TS      0:00:00.000     0:00:46.296     88 853 376      15 340

CHAPTERS:

Number          Time In         Length          Avg Video Rate  Max 1-Sec Rate  Max 1-Sec Time  Max 5-Sec Rate  Max 5-Sec Time  Max 10Sec Rate  Max 10Sec Time  Avg Frame Size  Max Frame Size  Max Frame Time
------          -------         ------          --------------  --------------  --------------  --------------  --------------  --------------  --------------  --------------  --------------  --------------
1               0:00:00.000     0:00:46.296     9 729 kbps      9 793 kbps      00:00:03.962    9 786 kbps      00:00:31.072    9 786 kbps      00:00:26.067    50 769 bytes    798 689 bytes   00:00:04.963

STREAM DIAGNOSTICS:

File            PID             Type            Codec           Language                Seconds                 Bitrate                 Bytes           Packets
----            ---             ----            -----           --------                --------------          --------------          -------------   -----
00000.M2TS      4113 (0x1011)   0x1B            AVC                                     46,213                  9 871                   57 020 524      310 583
00000.M2TS      4352 (0x1100)   0x80            LPCM            eng (English)           46,213                  2 315                   13 371 440      74 080
00000.M2TS      4353 (0x1101)   0x86            DTS-HD MA       eng (English)           46,213                  2 310                   13 344 000      79 923

<---- END FORUMS PASTE ---->

QUICK SUMMARY:

Disc Title: Metallica - San Francisco Symphony [Blu-Ray, 2020] 1080 (sergej644)
Disc Size: 46 279 856 672 bytes
Protection: AACS
BD-Java: Yes
Playlist: 00000.MPLS
Size: 88 853 376 bytes
Length: 0:00:46.296
Total Bitrate: 15,35 Mbps
Video: MPEG-4 AVC Video / 9720 kbps / 1080p / 23,976 fps / 16:9 / High Profile 4.1
Audio: English / LPCM Audio / 2.0 / 48 kHz / 2304 kbps / 24-bit
Audio: English / DTS-HD Master Audio / 2.0 / 48 kHz / 2304 kbps / 24-bit (DTS Core: 2.0 / 48 kHz / 1509 kbps / 24-bit)

********************
PLAYLIST: 01000.MPLS
********************

<--- BEGIN FORUMS PASTE --->

Код:

Total   Video
Title                                                           Codec   Length  Movie Size      Disc Size       Bitrate Bitrate Main Audio Track                          Secondary Audio Track
-----                                                           ------  ------- --------------  --------------  ------- ------- ------------------                        ---------------------
01000.MPLS                                                      AVC     0:00:46 88 853 376      46 279 856 672  15,35   9,72    LPCM 2.0 2304Kbps (48kHz/24-bit)          DTS-HD Master 2.0 2304Kbps (48kHz/24-bit)

Код:

DISC INFO:

Disc Title:     Metallica - San Francisco Symphony  [Blu-Ray, 2020] 1080 (sergej644)
Disc Size:      46 279 856 672 bytes
Protection:     AACS
BD-Java:        Yes
BDInfo:         0.5.8

PLAYLIST REPORT:

Name:                   01000.MPLS
Length:                 0:00:46.296 (h:m:s.ms)
Size:                   88 853 376 bytes
Total Bitrate:          15,35 Mbps

VIDEO:

Codec                   Bitrate             Description
-----                   -------             -----------
MPEG-4 AVC Video        9720 kbps           1080p / 23,976 fps / 16:9 / High Profile 4.1

AUDIO:

Codec                           Language        Bitrate         Description
-----                           --------        -------         -----------
LPCM Audio                      English         2304 kbps       2.0 / 48 kHz / 2304 kbps / 24-bit
DTS-HD Master Audio             English         2304 kbps       2.0 / 48 kHz / 2304 kbps / 24-bit (DTS Core: 2.0 / 48 kHz / 1509 kbps / 24-bit)

FILES:

Name            Time In         Length          Size            Total Bitrate
----            -------         ------          ----            -------------
00000.M2TS      0:00:00.000     0:00:46.296     88 853 376      15 340

CHAPTERS:

Number          Time In         Length          Avg Video Rate  Max 1-Sec Rate  Max 1-Sec Time  Max 5-Sec Rate  Max 5-Sec Time  Max 10Sec Rate  Max 10Sec Time  Avg Frame Size  Max Frame Size  Max Frame Time
------          -------         ------          --------------  --------------  --------------  --------------  --------------  --------------  --------------  --------------  --------------  --------------
1               0:00:00.000     0:00:00.125     7 378 kbps      0 kbps          00:00:00.000    0 kbps          00:00:00.000    0 kbps          00:00:00.000    28 851 bytes    99 237 bytes    00:00:00.000
2               0:00:00.125     0:00:44.919     9 776 kbps      9 793 kbps      00:00:03.962    9 786 kbps      00:00:31.072    9 786 kbps      00:00:26.067    50 965 bytes    798 689 bytes   00:00:04.963
3               0:00:45.045     0:00:01.251     8 298 kbps      9 672 kbps      00:00:45.086    0 kbps          00:00:00.000    0 kbps          00:00:00.000    46 351 bytes    798 058 bytes   00:00:46.004

STREAM DIAGNOSTICS:

File            PID             Type            Codec           Language                Seconds                 Bitrate                 Bytes           Packets
----            ---             ----            -----           --------                --------------          --------------          -------------   -----
00000.M2TS      4113 (0x1011)   0x1B            AVC                                     46,213                  9 871                   57 020 524      310 583
00000.M2TS      4352 (0x1100)   0x80            LPCM            eng (English)           46,213                  2 315                   13 371 440      74 080
00000.M2TS      4353 (0x1101)   0x86            DTS-HD MA       eng (English)           46,213                  2 310                   13 344 000      79 923

<---- END FORUMS PASTE ---->

QUICK SUMMARY:

Disc Title: Metallica - San Francisco Symphony [Blu-Ray, 2020] 1080 (sergej644)
Disc Size: 46 279 856 672 bytes
Protection: AACS
BD-Java: Yes
Playlist: 01000.MPLS
Size: 88 853 376 bytes
Length: 0:00:46.296
Total Bitrate: 15,35 Mbps
Video: MPEG-4 AVC Video / 9720 kbps / 1080p / 23,976 fps / 16:9 / High Profile 4.1
Audio: English / LPCM Audio / 2.0 / 48 kHz / 2304 kbps / 24-bit
Audio: English / DTS-HD Master Audio / 2.0 / 48 kHz / 2304 kbps / 24-bit (DTS Core: 2.0 / 48 kHz / 1509 kbps / 24-bit)

скриншот  скриншот  скриншот  скриншот  скриншот  
скриншот  скриншот  скриншот  скриншот  скриншот  


раздаю с 12:00 до 02:00 ночи piratbit.org



Скачать Metallica & San Francisco Symphony - S&M2 через торрент https://i5.imageban.ru/out/2021/08/04/31f17773d8c49174c632c500183455a9.png Скачать, смотреть онлайн Metallica & San Francisco Symphony - S&M2 [2020, Thrash Metal, Blu-ray, 1080p] бесплантно в хорошем качестве Трэклист Intro (features "Wherever I May Roam" and "All Within My Hands") The Ecstasy of Gold (Live) The Call of Ktulu ... 10 10 2
Торрент: Зарегистрирован [2021-08-04 08:13] · скачан: 18 раз
Статус: √ проверено
Размер: 43.1 GB
Как cкачать? Как скачать Metallica & San Francisco Symphony - S&M2 через торрент | UTorrent

28-11-2019 20:33  

Отключить всю рекламу на сайте

    Дорогой пользователь! Огромная просьба, поблагодарите релизера, оцените раздачу и оставьте свои комментарий, если Вы скачали Metallica & San Francisco Symphony - S&M2 через торрент бесплатно!
    Комментировать посты могут только пользователи прошедшие не сложную регистрацию
    Показать сообщения:    

    Metallica & San Francisco Symphony - S&M2 через торрент
    Скачать бесплатно Metallica & San Francisco Symphony - S&M2
    Metallica & San Francisco Symphony - S&M2 скачать торрент
    Metallica & San Francisco Symphony - S&M2 смотреть онлайн
    Cкачать фильм Metallica & San Francisco Symphony - S&M2 бесплатно
    Metallica & San Francisco Symphony - S&M2 скачать торрент в хорошем качестве
    Metallica & San Francisco Symphony - S&M2 смотреть онлайн бесплатно в хорошем качестве


    Вы не можете начинать темы
    Вы не можете отвечать на сообщения
    Вы не можете редактировать свои сообщения
    Вы не можете удалять свои сообщения
    Вы не можете голосовать в опросах
    Вы не можете прикреплять файлы к сообщениям
    Вы можете скачивать файлы