>

5.6

iTunes

6.1

MVO

5.7

MVO

1

7.4

1 сезон

6.8

iTunes

7.2

1 сезон

13

6.7

1 сезон

8.3

RePack

30

Deluxe

pack

9.9

Лицензия

ВАЖНО

ИГРА 18+

pack

7.3

RePack

MK11

7.7

RePack

jed

7.8

RePack

fifa19

8.5

RePack

RDR2

RePack

NEED FOR SPEED™ PAYBACK

4 сезон

9 сезон

Бесстыжие 9 сезон

Все сериалы

все сериалы на PB.wtf

RePack

FAR CRY 5

Anonymous, добрый день, мы катастрофически не успеваем собрать деньги на оплату серверов, помогите нам пожалуйста 5,10,15р., для нас важна любая помощь . В качестве благодарности мы отключим Вам всю рекламу на сайте (укажите свой ник в строку Ваше имя)!

×
  
Magnet ссылка

Спирит Непокорный / Spirit Untamed (Илэйн Боган, Эннио Торресан) [2021, Мультфильм, приключения, семейный, вестерн, WEB-DL 1080p] DUB [iTunes] piratbit.org

Спирит Непокорный через торрент piratbit.org

Раздают: 11 [ 14 KB/s ]
Размер: 4.81 GB | Добавлен: 1 мес. 19 д. назад | Торрент скачан:194 раза
Смотреть онлайн Спирит Непокорный | Скачать    Ребята, помогите собрать деньги на оплату серверов!!!

05-08-2021 03:06 Спирит Непокорный Скачать торрент  

Спирит Непокорный | Spirit Untamed
Год выпуска: 2021
Страна: США
Выпущено: DreamWorks Animation, Walden Media
Жанр: Мультфильм, приключения, семейный, вестерн
Продолжительность: 01:27:40
Перевод: Дублированный | iTunes
Субтитры: Aнглийские

Режиссер: Илэйн Боган, Эннио Торресан

rating

В ролях: Изабела Мерсед, Джулианна Мур, Джейк Джилленхол, Марсаи Мартин, Маккенна Грэйс, Уолтон Гоггинс, Гари А. Хэккер, Эйса Гонсалес, Андре Брауэр, Джино Монтесинос

Описание: Лаки Прескотт — юная бунтарка, совсем как ее мама, легендарная бесстрашная наездница, которую дочь почти не помнит. После очередной шалости заботливая тетушка Кора, вырастившая девочку, отправляет ее жить к отцу. Теперь все, о чем мечтает Лаки — вырваться на волю из крошечного сонного городка. Все меняется, когда она знакомится со Спиритом — диким мустангом, таким же упрямым и независимым, как и она сама. После того как Спирит попадает в руки бессердечного ковбоя и его подельников, Лаки в сопровождении новых друзей отправляется в полное опасностей путешествие, чтобы его спасти.

Качество: WEB-DL 1080p
Формат: MKV

Видео: MPEG-4 AVC, 1920x800, 6822 Кbit/s, 23.976 fps
Аудио #01: 48 kHz, AC3, 5.1, 384 Kbps | iTunes | RUS |
Аудио #02: 48 kHz, E-AC3, 5.1, 640 Kbps | Оригинал | ENG |
скриншот  скриншот  скриншот  скриншот  скриншот  

General
Unique ID : 289297601890429732847123195460793548140 (0xD9A4B101B0579A7D967E045D70E63D6C)
Complete name : F:VideoSpirit.Untamed.2021.WEB-DL.1080p.seleZen.mkv
Format : Matroska
Format version : Version 4
File size : 4.81 GiB
Duration : 1 h 27 min
Overall bit rate : 7 848 kb/s
Movie name : Spirit Untamed 2021 from seleZen
Encoded date : UTC 2021-08-04 23:32:52
Writing application : mkvmerge v59.0.0 ('Shining Star') 64-bit
Writing library : libebml v1.4.2 + libmatroska v1.6.4

Video
ID : 1
Format : AVC
Format/Info : Advanced Video Codec
Format profile : High@L4
Format settings : CABAC / 4 Ref Frames
Format settings, CABAC : Yes
Format settings, Reference : 4 frames
Codec ID : V_MPEG4/ISO/AVC
Duration : 1 h 27 min
Bit rate mode : Constant
Bit rate : 6 822 kb/s
Nominal bit rate : 10 000 kb/s
Width : 1 920 pixels
Height : 800 pixels
Display aspect ratio : 2.40:1
Frame rate mode : Constant
Frame rate : 23.976 (24000/1001) FPS
Color space : YUV
Chroma subsampling : 4:2:0
Bit depth : 8 bits
Scan type : Progressive
Bits/(Pixel*Frame) : 0.185
Stream size : 4.18 GiB (87%)
Language : English
Default : Yes
Forced : No
Color range : Limited
Color primaries : BT.709
Transfer characteristics : BT.709
Matrix coefficients : BT.709

Audio #1
ID : 2
Format : AC-3
Format/Info : Audio Coding 3
Commercial name : Dolby Digital
Codec ID : A_AC3
Duration : 1 h 27 min
Bit rate mode : Constant
Bit rate : 384 kb/s
Channel(s) : 6 channels
Channel layout : L R C LFE Ls Rs
Sampling rate : 48.0 kHz
Frame rate : 31.250 FPS (1536 SPF)
Compression mode : Lossy
Stream size : 241 MiB (5%)
Title : iTunes
Language : Russian
Service kind : Complete Main
Default : Yes
Forced : Yes

Audio #2
ID : 3
Format : E-AC-3
Format/Info : Enhanced AC-3
Commercial name : Dolby Digital Plus
Codec ID : A_EAC3
Duration : 1 h 27 min
Bit rate mode : Constant
Bit rate : 640 kb/s
Channel(s) : 6 channels
Channel layout : L R C LFE Ls Rs
Sampling rate : 48.0 kHz
Frame rate : 31.250 FPS (1536 SPF)
Compression mode : Lossy
Stream size : 401 MiB (8%)
Title : Original
Language : English
Service kind : Complete Main
Default : No
Forced : No

Text #1
ID : 4
Format : UTF-8
Codec ID : S_TEXT/UTF8
Codec ID/Info : UTF-8 Plain Text
Duration : 1 h 26 min
Bit rate : 64 b/s
Count of elements : 1673
Stream size : 41.0 KiB (0%)
Title : Full
Language : English
Default : No
Forced : No

Text #2
ID : 5
Format : UTF-8
Codec ID : S_TEXT/UTF8
Codec ID/Info : UTF-8 Plain Text
Duration : 1 h 27 min
Bit rate : 80 b/s
Count of elements : 2041
Stream size : 51.5 KiB (0%)
Title : SDH
Language : English
Default : No
Forced : No

piratbit.org



Скачать Спирит Непокорный через торрент https://a.radikal.ru/a32/2108/03/14db6cfc3e78.jpg Скачать, смотреть онлайн Спирит Непокорный бесплантно в хорошем качестве Описание: Лаки Прескотт — юная бунтарка, совсем как ее мама, легендарная бесстрашная наездница, которую дочь почти не помнит. После ... 10 10 7
Info! Золотая раздача, скачанное не засчитывается.
Торрент: Зарегистрирован [2021-08-05 03:06] · скачан: 194 раз
Статус: √ проверено
Размер: 4.81 GB
Как cкачать? Как скачать Спирит Непокорный через торрент | UTorrent

% Раздел Тема Автор DL S | L
Иностранные мультфильмы [ 1.46 GB ] Спирит Непокорный / Spirit Untamed [2021 Мультфильм HDRip] - [Пифагор] Twi7ter Скачать
132 | 6
Зарубежные Мультфильмы (BDRip 1080p, 720p, Blu-ray, BD-Remux) [ 5.18 GB ] Спирит Непокорный / Spirit Untamed [2021 Мультфильм BDRip 1080p] DUB [Пифагор] bober100 Скачать
7 | 0
Зарубежные Мультфильмы (BDRip 1080p, 720p, Blu-ray, BD-Remux) [ 2.59 GB ] Спирит Непокорный / Spirit Untamed [2021 Мультфильм BDRip 720p] DUB [Пифагор] bober100 Скачать
4 | 0
Иностранные мультфильмы [ 1.46 GB ] Спирит Непокорный / Spirit Untamed [2021 мультфильм WEB-DLRip-AVC] [Локализованный видеоряд] Dub [КиноПоиск HD] sokol_ok Скачать
66 | 1
Иностранные мультфильмы [ 1.46 GB ] Спирит Непокорный / Spirit Untamed [2021 Мультфильм WEB-DLRip] bober100 Скачать
6 | 0

28-11-2019 20:33  

Отключить всю рекламу на сайте

    Дорогой пользователь! Огромная просьба, поблагодарите релизера, оцените раздачу и оставьте свои комментарий, если Вы скачали Спирит Непокорный через торрент бесплатно!
    Комментировать посты могут только пользователи прошедшие не сложную регистрацию
    Показать сообщения:    

    Спирит Непокорный через торрент
    Скачать бесплатно Спирит Непокорный
    Спирит Непокорный скачать торрент
    Спирит Непокорный смотреть онлайн
    Cкачать фильм Спирит Непокорный бесплатно
    Спирит Непокорный скачать торрент в хорошем качестве
    Спирит Непокорный смотреть онлайн бесплатно в хорошем качестве


    Вы не можете начинать темы
    Вы не можете отвечать на сообщения
    Вы не можете редактировать свои сообщения
    Вы не можете удалять свои сообщения
    Вы не можете голосовать в опросах
    Вы не можете прикреплять файлы к сообщениям
    Вы можете скачивать файлы