Достать ножи: Стеклянная луковица

MVO

Добыча

Дубляж

Уэнсдэй

1 сезон

Тор

Дубляж

13 клиническая

1 сезон

Жестокая ночь

MVO

Одни из нас

1 сезон

Deluxe

pack

Рекомендуем

30

Пиратка

ВАЖНО

ВАЖНО

Ghostwire

Пиратка

jed

RePack

nioh2

RePack

RDR2

RePack

NEED FOR SPEED™ PAYBACK

RePack

скачать торрент

Кинопоиск HD

Острые козырьки 6 сезон

6 сезон

FAR CRY 6

RePack

скачать торрент

Лицензия

скачать торрент

MVO

1

1 сезон

скачать торрент

1 сезон

скачать торрент

Лицензия

  

Настоящая любовь / True Romance (Тони Скотт) [1993, Триллер, мелодрама, криминал, UHD BDRemux 2160p, (Dolby Vision Profile 8)] [Режиссёрская версия] MVO [R5]

Настоящая любовь через торрент piratbit.org

Размер: 65.45 GB | Добавлен: 1 год 5 мес. назад | Торрент скачан:26 раз
Смотреть онлайн | Скачать | Поддержите нас   

07-08-2021 02:52 Настоящая любовь Скачать торрент  

Настоящая любовь | True Romance
Режиссёрская версия

Год выпуска: 1993
Страна: США, Франция
Студия: August Entertainment, Davis-Films, Morgan Creek Productions
Жанр: Триллер, мелодрама, криминал
Продолжительность: 02:00:53
Перевод: Профессиональный (многоголосый) | R5

Субтитры: Русские (Full), английские

Режиссер: Тони Скотт

rating

В ролях: Кристиан Слэйтер, Патриция Аркетт, Майкл Рапапорт, Джеймс Гандольфини, Бронсон Пиншо, Дэннис Хоппер, Кристофер Уокен, Сол Рубинек, Гэри Олдман, Том Сайзмор, Брэд Питт, Вэл Килмер, Крис Пенн, Кевин Корригэн, Пол Бен-Виктор, Сэмюэл Л. Джексон, Виктор Арго, Фрэнк Адонис, Пол Бейтс, Лоуренс Мэйсон, Эрик Аллан Крамер, Патрик Джон Херли, Майкл Бич, Грегори Спорледер, Анна Левайн-Томпсон, Мария Питилло, Кончата Феррелл, Джон Бауэр, Джо Д’Анджерио, Джон Ченатьемпо, Саид Фарадж, Дэннис Гарбер, Скотт Эверс, Хилари Клим, Стив Гонсалес, Джек Блэк

Описание: Кларенс Уорли и Алабама Уитмэн познакомились и провели вместе ночь. Алабама призналась, что она делает первые шаги на трудном поприще «call-girl», то есть «девушки по вызову». Кларенс Уорли не был суперменом, однако, «навестив» сутенера Алабамы, оставил после себя два трупа - сутенёра и его телохранителя. А еще Уорли прихватил у них чемодан кокаина на полмиллиона долларов. Кларенс и Алабама сами себя назвали мужем и женой и отправились в «свадебное путешествие»… Через всю Америку… Чтобы сбыть наркотики и получить вместо них деньги… По следу возлюбленных устремилась свора мафиози-ищеек. Америка - страна большая, однако спрятаться в ней, оказывается, негде!

Качество: UHD BDRemux 2160p | Dolby Vision Profile 8
Формат: MKV

Видео: 3840x2160 at 23.976 fps, MPEG-H HEVC HDR Video, ~ 74500 kbps avg
Аудио #01: 48 kHz, AC3, 5.1, 448 Kbps | Профессиональный многоголосый | RUS |
Аудио #02: 48 kHz, DTS-HD MA, 7.1, 2546 Kbps | Оригинал | ENG |
скриншот  скриншот  скриншот  скриншот  

General
Unique ID : 205914263859526280399590798050997614131 (0x9AE9A50960D8B79B7992F3EAE590B633)
Complete name : D:True.Romance.1993.BDREMUX.2160p.HDR.seleZen.mkv
Format : Matroska
Format version : Version 4
File size : 65.5 GiB
Duration : 2 h 0 min
Overall bit rate mode : Variable
Overall bit rate : 77.5 Mb/s
Movie name : True Romance 1993 from seleZen
Encoded date : UTC 2021-08-06 21:27:01
Writing application : mkvmerge v59.0.0 ('Shining Star') 64-bit
Writing library : libebml v1.4.2 + libmatroska v1.6.4

Video
ID : 1
ID in the original source m : 4117 (0x1015)
Format : HEVC
Format/Info : High Efficiency Video Coding
Format profile : Main 10@L5.1@High
HDR format : Dolby Vision, Version 1.0, dvhe.08.06, BL+RPU, Blu-ray compatible / SMPTE ST 2086, HDR10 compatible
Codec ID : V_MPEGH/ISO/HEVC
Duration : 2 h 0 min
Bit rate : 74.5 Mb/s
Width : 3 840 pixels
Height : 2 160 pixels
Display aspect ratio : 16:9
Frame rate mode : Constant
Frame rate : 23.976 (23976/1000) FPS
Original frame rate : 23.976 (24000/1001) FPS
Color space : YUV
Chroma subsampling : 4:2:0 (Type 2)
Bit depth : 10 bits
Bits/(Pixel*Frame) : 0.375
Stream size : 62.9 GiB (96%)
Language : English
Default : No
Forced : No
Color range : Limited
Color primaries : BT.2020
Transfer characteristics : PQ
Matrix coefficients : BT.2020 non-constant
Mastering display color pri : BT.2020
Mastering display luminance : min: 0.0001 cd/m2, max: 1000 cd/m2
Original source medium : Blu-ray

Audio #1
ID : 2
Format : AC-3
Format/Info : Audio Coding 3
Commercial name : Dolby Digital
Codec ID : A_AC3
Duration : 2 h 0 min
Bit rate mode : Constant
Bit rate : 448 kb/s
Channel(s) : 6 channels
Channel layout : L R C LFE Ls Rs
Sampling rate : 48.0 kHz
Frame rate : 31.250 FPS (1536 SPF)
Compression mode : Lossy
Stream size : 386 MiB (1%)
Title : R5
Language : Russian
Service kind : Complete Main
Default : Yes
Forced : Yes

Audio #2
ID : 3
Format : DTS XLL
Format/Info : Digital Theater Systems
Commercial name : DTS-HD Master Audio
Codec ID : A_DTS
Duration : 2 h 0 min
Bit rate mode : Variable
Bit rate : 2 546 kb/s
Channel(s) : 6 channels
Channel layout : C L R Ls Rs LFE
Sampling rate : 48.0 kHz
Frame rate : 93.750 FPS (512 SPF)
Bit depth : 24 bits
Compression mode : Lossless
Stream size : 2.15 GiB (3%)
Title : Original
Language : English
Default : No
Forced : No

Text #1
ID : 4
Format : UTF-8
Codec ID : S_TEXT/UTF8
Codec ID/Info : UTF-8 Plain Text
Duration : 1 h 55 min
Bit rate : 132 b/s
Count of elements : 1885
Stream size : 112 KiB (0%)
Title : Full
Language : Russian
Default : No
Forced : No

Text #2
ID : 5
Format : UTF-8
Codec ID : S_TEXT/UTF8
Codec ID/Info : UTF-8 Plain Text
Duration : 1 h 59 min
Bit rate : 77 b/s
Count of elements : 1671
Stream size : 68.1 KiB (0%)
Title : Full
Language : English
Default : No
Forced : No

Menu
00:00:00.000 : Глава 01
00:08:45.942 : Глава 02
00:19:06.729 : Глава 03
00:32:22.107 : Глава 04
00:40:27.258 : Глава 05
00:47:38.856 : Глава 06
00:58:26.420 : Глава 07
01:13:10.678 : Глава 08
01:23:41.308 : Глава 09
01:33:48.706 : Глава 10
01:42:56.462 : Глава 11
01:54:16.057 : Глава 12




Скачать Настоящая любовь через торрент https://d.radikal.ru/d23/2108/50/c89d62b6c531.jpg Скачать, смотреть онлайн Настоящая любовь бесплантно в хорошем качестве Описание: Кларенс Уорли и Алабама Уитмэн познакомились и провели вместе ночь. Алабама призналась, что она делает первые шаги на трудном ... 10 10 3
Торрент: Зарегистрирован [2021-08-07 02:52] · скачан: 26 раз
Статус: √ проверено
Размер: 65.45 GB
Как cкачать? Как скачать Настоящая любовь через торрент | UTorrent

% Раздел Тема Автор DL S | L
Фильмы [HD 720p, 1080p] (Хороший звук DUB, MVO) [ 12.81 GB ] Настоящая любовь / True Romance | MVO + 2хDVO + 3хAVO + VO | GBR Transfer | Director's Cut | 1080p RealOldGamer Скачать
1 | 0
Фильмы до 2000 г. [ 1.79 GB ] Настоящая любовь / True Romance | AVO | BDRip killermax2013 Скачать
1 | 0

28-11-2019 20:33  


Отключить вcю реклaмy на сайте, в т.ч. и в плеере онлайн просмотра!

    Дорогой пользователь! Огромная просьба, поблагодарите релизера, оцените раздачу и оставьте свои комментарий, если Вы скачали Настоящая любовь через торрент бесплатно!!
    Комментировать посты могут только пользователи прошедшие не сложную регистрацию
    Показать сообщения:    


    Настоящая любовь через торрент
    Скачать бесплатно Настоящая любовь
    Настоящая любовь скачать торрент
    Настоящая любовь смотреть онлайн
    Cкачать фильм Настоящая любовь бесплатно
    Настоящая любовь скачать торрент в хорошем качестве
    Настоящая любовь смотреть онлайн бесплатно в хорошем качестве
    Вы не можете начинать темы
    Вы не можете отвечать на сообщения
    Вы не можете редактировать свои сообщения
    Вы не можете удалять свои сообщения
    Вы не можете голосовать в опросах
    Вы не можете прикреплять файлы к сообщениям
    Вы можете скачивать файлы
    Настоящая любовь / True Romance [1993, Триллер, мелодрама, криминал, UHD BDRemux 2160p, ] [Режиссёрская версия] MVO [R5] смотреть онлайн, скачать торрент picoco.icu