>

5.6

iTunes

6.1

MVO

5.7

MVO

1

7.4

1 сезон

6.8

iTunes

7.2

1 сезон

13

6.7

1 сезон

8.3

RePack

30

Deluxe

pack

9.9

Лицензия

ВАЖНО

ИГРА 18+

pack

7.3

RePack

MK11

7.7

RePack

jed

7.8

RePack

fifa19

8.5

RePack

RDR2

RePack

NEED FOR SPEED™ PAYBACK

4 сезон

9 сезон

Бесстыжие 9 сезон

Все сериалы

все сериалы на PB.wtf

RePack

FAR CRY 5

Anonymous, добрый день, мы катастрофически не успеваем собрать деньги на оплату серверов, помогите нам пожалуйста 5,10,15р., для нас важна любая помощь . В качестве благодарности мы отключим Вам всю рекламу на сайте (укажите свой ник в строку Ваше имя)!

×
  
Magnet ссылка

Предатель по-американски / American Traitor: The Trial of Axis Sally (Майкл Полиш) [2021, Драма, BDRip 1080p] DVO [Pazl Voice] piratbit.org

Предатель по-американски через торрент piratbit.org

Раздают: 1 [ 0 KB/s ]
Размер: 8.25 GB | Добавлен: 1 мес. 15 д. назад | Торрент скачан:65 раз
Смотреть онлайн Предатель по-американски | Скачать    Ребята, помогите собрать деньги на оплату серверов!!!

08-08-2021 17:18 Предатель по-американски Скачать торрент  

Предатель по-американски | American Traitor: The Trial of Axis Sally
Год выпуска: 2021
Страна: США
Студия: Pimienta, Emmett/Furla/Oasis Films (EFO Films), Potato Eater Productions
Жанр: Драма
Продолжительность: 01:48:52
Перевод: Любительский (двухголосый) | Pazl Voice
Субтитры: Aнглийские

Режиссер: Майкл Полиш

rating

В ролях: Аль Пачино, Медоу Уильямс, Томас Кречманн, Митч Пиледжи, Лорин Кент, Карстен Норгаард, Джаспер Полиш, Джон Д. Хикман, Свен Теммел, Джеси Маккинни, Брайан Дин Риттенхаус, Джон Кассарино, Карлос Леаль, Клэнси МакЛэйн, Дрю Тейлор

Описание: Судебная драма о процессе над Милдред Гилларс, американской актрисе, которая стала голосом нацистской пропаганды во время Второй мировой войны. Вывезенной после победы обратно в США, ей предъявляют обвинение в предательстве, за что женщине грозит смертная казнь.

Качество: BDRip 1080p
Формат: MKV

Видео: MPEG-4 AVC, 7072 Kбит/с, 1920x802, 23.976 кадр/с
Аудио #1: Русский (АС3, 6 ch, 448 Кбит/с, 48.0 KHz) Любительский (двухголосый, закадровый) Pazl Voice
Аудио #2: Английский (DTS-HD MA , 6 ch, 3304 Кбит/с, 48.0 KHz)
скриншот  скриншот  скриншот  скриншот  скриншот  

Источник: American.Traitor.The.Trial.of.Axis.Sally.2021.1080p.BluRay.x264.DTS-HD.MA.5.1-MT
General
Unique ID : 229814354560893191473904718008706154231 (0xACE4A27C58D651CDB1D78BFC48F83EF7)
Complete name : American.Traitor.The.Trial.of.Axis.Sally.2021.BDRip.1080p.mkv
Format : Matroska
Format version : Version 4 / Version 2
File size : 8.25 GiB
Duration : 1 h 48 min
Overall bit rate : 10.8 Mb/s
Encoded date : UTC 2021-08-08 09:36:32
Writing application : mkvmerge v7.1.0 ('Good Love') 64bit built on Jul 27 2014 13:06:55
Writing library : libebml v1.3.0 + libmatroska v1.4.1

Video
ID : 1
Format : AVC
Format/Info : Advanced Video Codec
Format profile : High@L4.1
Format settings, CABAC : Yes
Format settings, RefFrames : 5 frames
Codec ID : V_MPEG4/ISO/AVC
Duration : 1 h 48 min
Bit rate : 7 072 kb/s
Width : 1 920 pixels
Height : 802 pixels
Display aspect ratio : 2.40:1
Frame rate mode : Constant
Frame rate : 23.976 (24000/1001) FPS
Color space : YUV
Chroma subsampling : 4:2:0
Bit depth : 8 bits
Scan type : Progressive
Bits/(Pixel*Frame) : 0.192
Stream size : 5.38 GiB (65%)
Writing library : x264 core 157 r2938 2b00a84 TnP@MTeam Mod
Encoding settings : cabac=1 / ref=5 / deblock=1:-3:-3 / analyse=0x3:0x133 / me=umh / subme=10 / psy=1 / psy_rd=1.05:0.00 / mixed_ref=1 / me_range=32 / chroma_me=1 / trellis=2 / 8x8dct=1 / cqm=0 / deadzone=21,11 / fast_pskip=0 / chroma_qp_offset=-2 / threads=12 / lookahead_threads=2 / sliced_threads=0 / nr=0 / decimate=0 / interlaced=0 / bluray_compat=0 / constrained_intra=0 / bframes=8 / b_pyramid=2 / b_adapt=2 / b_bias=0 / direct=3 / weightb=1 / open_gop=0 / weightp=2 / keyint=250 / keyint_min=24 / scenecut=40 / intra_refresh=0 / rc_lookahead=250 / rc=crf / mbtree=0 / crf=16.8 / qcomp=0.60 / qpmin=0 / qpmax=69 / qpstep=4 / vbv_maxrate=62500 / vbv_bufsize=78125 / crf_max=0.0 / nal_hrd=none / filler=0 / ip_ratio=1.30 / pb_ratio=1.20 / aq=3:0.80
Language : English
Default : Yes
Forced : No
Color range : Limited
Color primaries : BT.709
Matrix coefficients : BT.709

Audio #1
ID : 2
Format : AC-3
Format/Info : Audio Coding 3
Format settings, Endianness : Big
Codec ID : A_AC3
Duration : 1 h 48 min
Bit rate mode : Constant
Bit rate : 448 kb/s
Channel(s) : 6 channels
Channel positions : Front: L C R, Side: L R, LFE
Sampling rate : 48.0 kHz
Frame rate : 31.250 FPS (1536 SPF)
Bit depth : 16 bits
Compression mode : Lossy
Stream size : 349 MiB (4%)
Title : DVO | Pazl Voice
Language : Russian
Service kind : Complete Main
Default : Yes
Forced : No

Audio #2
ID : 3
Format : DTS
Format/Info : Digital Theater Systems
Format profile : MA / Core
Mode : 16
Format settings, Endianness : Big
Codec ID : A_DTS
Duration : 1 h 48 min
Bit rate mode : Variable / Constant
Bit rate : 3 304 kb/s / 1 509 kb/s
Channel(s) : 6 channels
Channel positions : Front: L C R, Side: L R, LFE
Sampling rate : 48.0 kHz
Frame rate : 93.750 FPS (512 SPF)
Bit depth : 24 bits
Compression mode : Lossless / Lossy
Stream size : 2.51 GiB (30%)
Language : English
Default : No
Forced : No

Text #1
ID : 4
Format : UTF-8
Codec ID : S_TEXT/UTF8
Codec ID/Info : UTF-8 Plain Text
Duration : 1 h 43 min
Bit rate : 64 b/s
Count of elements : 1569
Stream size : 48.8 KiB (0%)
Title : SRT
Language : English
Default : No
Forced : No

Text #2
ID : 5
Format : PGS
Muxing mode : zlib
Codec ID : S_HDMV/PGS
Codec ID/Info : Picture based subtitle format used on BDs/HD-DVDs
Duration : 1 h 48 min
Bit rate : 19.4 kb/s
Count of elements : 3428
Stream size : 15.1 MiB (0%)
Language : English
Default : No
Forced : No

Menu
00:00:00.000 : en:Chapter 01
00:08:50.280 : en:Chapter 02
00:16:52.637 : en:Chapter 03
00:25:42.166 : en:Chapter 04
00:33:39.559 : en:Chapter 05
00:42:03.646 : en:Chapter 06
00:52:26.810 : en:Chapter 07
01:01:39.195 : en:Chapter 08
01:08:50.710 : en:Chapter 09
01:18:26.035 : en:Chapter 10
01:25:54.566 : en:Chapter 11
01:33:34.067 : en:Chapter 12
01:41:44.849 : en:Chapter 13

piratbit.org



Скачать Предатель по-американски через торрент http://b.radikal.ru/b04/2108/7a/e82d187ee6f5.jpg Скачать, смотреть онлайн Предатель по-американски бесплантно в хорошем качестве Описание: Судебная драма о процессе над Милдред Гилларс, американской актрисе, которая стала голосом нацистской пропаганды во время Второй ... 10 10 6
Info! Золотая раздача, скачанное не засчитывается.
Торрент: Зарегистрирован [2021-08-08 17:18] · скачан: 65 раз
Статус: T временная
Размер: 8.25 GB
Как cкачать? Как скачать Предатель по-американски через торрент | UTorrent

28-11-2019 20:33  

Отключить всю рекламу на сайте

09-08-2021 15:24 Предатель по-американски Скачать торрент  

...ну конечно...нужно ПОНЯТЬ и ПРОСТИТЬ...а чё ну топила за наци ну а те перегибали с русскими и евреями...ну и чёё...следующий на очереди док Менгле...то-же был не правильно понят ...piratbit.org



09-08-2021 18:16 Предатель по-американски Скачать торрент  

Wapentake666 писал(а):

...ну конечно...нужно ПОНЯТЬ и ПРОСТИТЬ...а чё ну топила за наци ну а те перегибали с русскими и евреями...ну и чёё...следующий на очереди док Менгле...то-же был не правильно понят ...

Ну правильно сейчас у нас доктора Менгеле в законе ,а наци это вертикаль и концлагерь узаконен,раньше немцы перегибали Русских ну а теперь евреи перегибают опять же русских:).Значит нужно все подводить под реалии и то что , Ну так бывает и все нормальноpiratbit.org



10-08-2021 08:59 Предатель по-американски Скачать торрент  

На заставке прочитал ненароком Мэдоу Сопраноpiratbit.org



    Дорогой пользователь! Огромная просьба, поблагодарите релизера, оцените раздачу и оставьте свои комментарий, если Вы скачали Предатель по-американски через торрент бесплатно!
    Комментировать посты могут только пользователи прошедшие не сложную регистрацию
    Показать сообщения:    

    Предатель по-американски через торрент
    Скачать бесплатно Предатель по-американски
    Предатель по-американски скачать торрент
    Предатель по-американски смотреть онлайн
    Cкачать фильм Предатель по-американски бесплатно
    Предатель по-американски скачать торрент в хорошем качестве
    Предатель по-американски смотреть онлайн бесплатно в хорошем качестве


    Вы не можете начинать темы
    Вы не можете отвечать на сообщения
    Вы не можете редактировать свои сообщения
    Вы не можете удалять свои сообщения
    Вы не можете голосовать в опросах
    Вы не можете прикреплять файлы к сообщениям
    Вы можете скачивать файлы