>

5.6

iTunes

6.1

MVO

5.7

MVO

1

7.4

1 сезон

6.8

iTunes

7.2

1 сезон

13

6.7

1 сезон

8.3

RePack

30

Deluxe

pack

9.9

Лицензия

ВАЖНО

ИГРА 18+

pack

7.3

RePack

MK11

7.7

RePack

jed

7.8

RePack

fifa19

8.5

RePack

RDR2

RePack

NEED FOR SPEED™ PAYBACK

4 сезон

9 сезон

Бесстыжие 9 сезон

Все сериалы

все сериалы на PB.wtf

RePack

FAR CRY 5

Anonymous, добрый вечер, мы катастрофически не успеваем собрать деньги на оплату серверов, помогите нам пожалуйста 5,10,15р., для нас важна любая помощь . В качестве благодарности мы отключим Вам всю рекламу на сайте (укажите свой ник в строку Ваше имя)!

×
  
Magnet ссылка

Средоточие боли / Trigger Point (Брэд Тёрнер) [2021, Боевик, триллер, BDRip 1080p] DVO [Pazl Voice] piratbit.org

Средоточие боли через торрент piratbit.org

Раздают: 5 [ 69 KB/s ]
Размер: 7.73 GB | Добавлен: 1 мес. 11 д. назад | Торрент скачан:122 раза
Смотреть онлайн Средоточие боли | Скачать    Ребята, помогите собрать деньги на оплату серверов!!!

08-08-2021 17:43 Средоточие боли Скачать торрент  

Средоточие боли | Trigger Point
Год выпуска: 2021
Страна: Канада
Студия: Chicken Soup for the Soul Entertainment, High Park Entertainment, Landmark Studio Group
Жанр: Боевик, триллер
Продолжительность: 01:22:19
Перевод: Любительский (двухголосый) | Pazl Voice
Субтитры: Aнглийские (Full, SDH)

Режиссер: Брэд Тёрнер

rating

В ролях: Бэрри Пеппер, Лора Вандервурт, Колм Фиор, Назнин Контрактор, Грег Брайк, Ив Харлоу, Джейн Иствуд, Рэйнбоу Сан Фрэнкс, Карло Рота, Карен Робинсон, Джон Киркпатрик, Райан Малкольм, Хуан Карлос Велис, Тим Прогош, Брайан Кук, Плато Фунтидакис, Энтони Ферри

Описание: Бывший агент ЦРУ из сверхсекретного подразделения был захвачен и подвержен пыткам с использованием сыворотки правды с побочным эффектом потери памяти. Ник не помнил как вырвался из плена, но узнал от руководителя что стал невольным предателем выдав настоящие имена всего отдела. Он, как и его бывшие коллеги, отстранен от службы как раскрытый агент и под чужим именем ведет тихую жизнь в небольшом городке. Но вынужден вновь взяться за оружие, после серии убийств своих бывших соратников.

Качество: BDRip 1080p
Формат: MKV

Видео: MPEG-4 AVC, 9257 Kбит/с, 1920x806, 23.976 кадр/с
Аудио #1: Русский (АС3, 6 ch, 448 Кбит/с, 48.0 KHz) Любительский (двухголосый, закадровый) Pazl Voice
Аудио #2: Английский (DTS-HD MA, 6 ch, 3700 Кбит/с, 48.0 KHz)
скриншот  скриншот  скриншот  скриншот  скриншот  

Источник: Trigger.Point.2021.1080p.BluRay.x264.DTS-HD.MA.5.1-MT
General
Unique ID : 209662616617606234144369754897165891095 (0x9DBB8D1893561FC5AD0A2EEEA008B617)
Complete name : Trigger.Point.2021.BDRip.1080p.x264.mkv
Format : Matroska
Format version : Version 4
File size : 7.73 GiB
Duration : 1 h 22 min
Overall bit rate mode : Variable
Overall bit rate : 13.4 Mb/s
Encoded date : UTC 2021-06-08 12:44:28
Writing application : mkvmerge v7.1.0 ('Good Love') 64bit built on Jul 27 2014 13:06:55
Writing library : libebml v1.3.0 + libmatroska v1.4.1

Video
ID : 1
Format : AVC
Format/Info : Advanced Video Codec
Format profile : High@L4.1
Format settings : CABAC / 5 Ref Frames
Format settings, CABAC : Yes
Format settings, Reference fra : 5 frames
Codec ID : V_MPEG4/ISO/AVC
Duration : 1 h 22 min
Bit rate : 9 257 kb/s
Width : 1 920 pixels
Height : 806 pixels
Display aspect ratio : 2.40:1
Frame rate mode : Constant
Frame rate : 23.976 (24000/1001) FPS
Color space : YUV
Chroma subsampling : 4:2:0
Bit depth : 8 bits
Scan type : Progressive
Bits/(Pixel*Frame) : 0.249
Stream size : 5.32 GiB (69%)
Writing library : x264 core 157 r2938 2b00a84 TnP@MTeam Mod
Encoding settings : cabac=1 / ref=5 / deblock=1:-3:-3 / analyse=0x3:0x133 / me=umh / subme=10 / psy=1 / psy_rd=1.05:0.00 / mixed_ref=1 / me_range=32 / chroma_me=1 / trellis=2 / 8x8dct=1 / cqm=0 / deadzone=21,11 / fast_pskip=0 / chroma_qp_offset=-2 / threads=12 / lookahead_threads=2 / sliced_threads=0 / nr=0 / decimate=0 / interlaced=0 / bluray_compat=0 / constrained_intra=0 / bframes=8 / b_pyramid=2 / b_adapt=2 / b_bias=0 / direct=3 / weightb=1 / open_gop=0 / weightp=2 / keyint=250 / keyint_min=24 / scenecut=40 / intra_refresh=0 / rc_lookahead=250 / rc=crf / mbtree=0 / crf=16.8 / qcomp=0.60 / qpmin=0 / qpmax=69 / qpstep=4 / vbv_maxrate=62500 / vbv_bufsize=78125 / crf_max=0.0 / nal_hrd=none / filler=0 / ip_ratio=1.30 / pb_ratio=1.20 / aq=3:0.80
Language : English
Default : Yes
Forced : No
Color range : Limited
Color primaries : BT.709
Matrix coefficients : BT.709

Audio #1
ID : 2
Format : AC-3
Format/Info : Audio Coding 3
Commercial name : Dolby Digital
Codec ID : A_AC3
Duration : 1 h 22 min
Bit rate mode : Constant
Bit rate : 448 kb/s
Channel(s) : 6 channels
Channel layout : L R C LFE Ls Rs
Sampling rate : 48.0 kHz
Frame rate : 31.250 FPS (1536 SPF)
Compression mode : Lossy
Stream size : 264 MiB (3%)
Title : Pazl Voice
Language : Russian
Service kind : Complete Main
Default : Yes
Forced : No

Audio #2
ID : 3
Format : DTS XLL
Format/Info : Digital Theater Systems
Commercial name : DTS-HD Master Audio
Codec ID : A_DTS
Duration : 1 h 22 min
Bit rate mode : Variable
Bit rate : 3 700 kb/s
Channel(s) : 6 channels
Channel layout : C L R Ls Rs LFE
Sampling rate : 48.0 kHz
Frame rate : 93.750 FPS (512 SPF)
Bit depth : 24 bits
Compression mode : Lossless
Stream size : 2.13 GiB (28%)
Language : English
Default : No
Forced : No

Text #1
ID : 4
Format : UTF-8
Codec ID : S_TEXT/UTF8
Codec ID/Info : UTF-8 Plain Text
Duration : 1 h 17 min
Bit rate : 38 b/s
Count of elements : 871
Stream size : 22.0 KiB (0%)
Title : SRT
Language : English
Default : No
Forced : No

Text #2
ID : 5
Format : UTF-8
Codec ID : S_TEXT/UTF8
Codec ID/Info : UTF-8 Plain Text
Duration : 1 h 21 min
Bit rate : 48 b/s
Count of elements : 1244
Stream size : 29.1 KiB (0%)
Title : SRT-SDH
Language : English
Default : No
Forced : No

Text #3
ID : 6
Format : PGS
Muxing mode : zlib
Codec ID : S_HDMV/PGS
Codec ID/Info : Picture based subtitle format used on BDs/HD-DVDs
Duration : 1 h 21 min
Bit rate : 37.6 kb/s
Count of elements : 1887
Stream size : 21.9 MiB (0%)
Language : English
Default : No
Forced : No

Menu
00:00:00.000 : en:Chapter 01
00:05:52.727 : en:Chapter 02
00:13:45.116 : en:Chapter 03
00:20:47.037 : en:Chapter 04
00:27:39.116 : en:Chapter 05
00:37:21.865 : en:Chapter 06
00:42:08.985 : en:Chapter 07
00:47:56.165 : en:Chapter 08
00:55:25.781 : en:Chapter 09
01:02:33.416 : en:Chapter 10
01:10:43.364 : en:Chapter 11
01:18:45.346 : en:Chapter 12

piratbit.org



Скачать Средоточие боли через торрент http://c.radikal.ru/c30/2106/03/6a2460f3eabe.jpg Скачать, смотреть онлайн Средоточие боли бесплантно в хорошем качестве Описание: Бывший агент ЦРУ из сверхсекретного подразделения был захвачен и подвержен пыткам с использованием сыворотки правды с побочным ... 10 10 11
Торрент: Зарегистрирован [2021-08-08 17:43] · скачан: 122 раз
Статус: T временная
Размер: 7.73 GB
Как cкачать? Как скачать Средоточие боли через торрент | UTorrent

% Раздел Тема Автор DL S | L
Фильмы 2021 (Звук TS, Cam, VO, DVO) [ 1.5 GB ] Средоточие боли / Trigger Point [2021 HDRip-AVC] DVO [Pazl Voice] от MediaBit Lithuania Скачать
4 | 0

28-11-2019 20:33  

Отключить всю рекламу на сайте

    Дорогой пользователь! Огромная просьба, поблагодарите релизера, оцените раздачу и оставьте свои комментарий, если Вы скачали Средоточие боли через торрент бесплатно!
    Комментировать посты могут только пользователи прошедшие не сложную регистрацию
    Показать сообщения:    

    Средоточие боли через торрент
    Скачать бесплатно Средоточие боли
    Средоточие боли скачать торрент
    Средоточие боли смотреть онлайн
    Cкачать фильм Средоточие боли бесплатно
    Средоточие боли скачать торрент в хорошем качестве
    Средоточие боли смотреть онлайн бесплатно в хорошем качестве


    Вы не можете начинать темы
    Вы не можете отвечать на сообщения
    Вы не можете редактировать свои сообщения
    Вы не можете удалять свои сообщения
    Вы не можете голосовать в опросах
    Вы не можете прикреплять файлы к сообщениям
    Вы можете скачивать файлы