Достать ножи: Стеклянная луковица

MVO

Добыча

Дубляж

Уэнсдэй

1 сезон

Тор

Дубляж

13 клиническая

1 сезон

Жестокая ночь

MVO

Одни из нас

1 сезон

Deluxe

pack

Рекомендуем

30

Пиратка

ВАЖНО

ВАЖНО

Ghostwire

Пиратка

jed

RePack

nioh2

RePack

RDR2

RePack

NEED FOR SPEED™ PAYBACK

RePack

скачать торрент

Кинопоиск HD

Острые козырьки 6 сезон

6 сезон

FAR CRY 6

RePack

скачать торрент

Лицензия

скачать торрент

MVO

1

1 сезон

скачать торрент

1 сезон

скачать торрент

Лицензия

  

Красотка на взводе / Jolt (Таня Уэкслер) [2021, Боевик, комедия, UHD WEB-DL 2160p] Дубляж [iTunes]

Красотка на взводе через торрент piratbit.org

Раздают: 1 [ 0 KB/s ]
Размер: 9.79 GB | Добавлен: 1 год 5 мес. назад | Торрент скачан:291 раз
Смотреть онлайн | Скачать | Поддержите нас   

12-08-2021 03:39 Красотка на взводе Скачать торрент  

Красотка на взводе | Jolt
Год выпуска: 2021
Страна: США
Студия: Busted Shark Productions, Campbell Grobman Films, Eclectic Pictures Inc., Jolt Productions, Millennium Films, Nu Boyana Film Studios
Жанр: Боевик, комедия
Продолжительность: 01:31:06
Перевод: Дублированный | iTunes
Субтитры: Русские (Full), английские

Режиссер: Таня Уэкслер

rating

В ролях: Кейт Бекинсейл, Стэнли Туччи, Бобби Каннавале, Джай Кортни, Лаверн Кокс, Дэвид Брэдли, Кристиан Брассингтон, Ори Феффер, Константин Грегори, Том Ксандер, Димитар Ильков

Описание: Героиня комедийного боевика «Красотка на взводе» Линди работает вышибалой и испытывает серьезные проблемы с контролем гнева. Справиться с ними ей помогает специальный жилет, который бьет хозяйку током, если она перевозбуждена и готова вот-вот задушить очередного клиента. После убийства единственного мужчины, которого она когда-либо любила, Линди становится главной подозреваемой в его смерти, и девушке приходится самой начать поиски настоящего преступника.

Качество: UHD WEB-DL 2160p
Формат: MKV

Видео: 3840x1600 at 23.976 fps, MPEG-H HEVC HDR Video, ~ 14400 kbps avg
Аудио#1: 48 kHz, AC3, 5.1, 384 Kbps | iTunes | RUS |
Аудио#2: 48 kHz, E-AC3, 5.1, 640 Kbps | Оригинал | ENG |
скриншот  скриншот  скриншот  скриншот  скриншот  

General
Unique ID : 156365565378744779356945334256120852402 (0x75A2E997337E9A7A7F0618FC42076FB2)
Complete name : F:VideoJolt.2021.AMZN.WEB-DL.2160p.HDR.seleZen.mkv
Format : Matroska
Format version : Version 4
File size : 9.79 GiB
Duration : 1 h 31 min
Overall bit rate : 15.4 Mb/s
Movie name : Jolt 2021 from seleZen
Encoded date : UTC 2021-08-12 00:15:53
Writing application : mkvmerge v59.0.0 ('Shining Star') 64-bit
Writing library : libebml v1.4.2 + libmatroska v1.6.4

Video
ID : 1
Format : HEVC
Format/Info : High Efficiency Video Coding
Format profile : Main 10@L5@Main
HDR format : SMPTE ST 2094 App 4, Version 1, HDR10+ Profile B compatible
Codec ID : V_MPEGH/ISO/HEVC
Duration : 1 h 31 min
Bit rate : 14.4 Mb/s
Width : 3 840 pixels
Height : 1 600 pixels
Display aspect ratio : 2.40:1
Frame rate mode : Constant
Frame rate : 23.976 (24000/1001) FPS
Color space : YUV
Chroma subsampling : 4:2:0
Bit depth : 10 bits
Bits/(Pixel*Frame) : 0.098
Stream size : 9.14 GiB (93%)
Default : Yes
Forced : No
Color range : Limited
Color primaries : BT.2020
Transfer characteristics : PQ
Matrix coefficients : BT.2020 non-constant
Mastering display color pri : Display P3
Mastering display luminance : min: 0.0001 cd/m2, max: 1000 cd/m2
Maximum Content Light Level : 1140 cd/m2
Maximum Frame-Average Light : 831 cd/m2

Audio #1
ID : 2
Format : AC-3
Format/Info : Audio Coding 3
Commercial name : Dolby Digital
Codec ID : A_AC3
Duration : 1 h 31 min
Bit rate mode : Constant
Bit rate : 384 kb/s
Channel(s) : 6 channels
Channel layout : L R C LFE Ls Rs
Sampling rate : 48.0 kHz
Frame rate : 31.250 FPS (1536 SPF)
Compression mode : Lossy
Stream size : 250 MiB (2%)
Title : iTunes
Language : Russian
Service kind : Complete Main
Default : Yes
Forced : Yes

Audio #2
ID : 3
Format : E-AC-3
Format/Info : Enhanced AC-3
Commercial name : Dolby Digital Plus
Codec ID : A_EAC3
Duration : 1 h 31 min
Bit rate mode : Constant
Bit rate : 640 kb/s
Channel(s) : 6 channels
Channel layout : L R C LFE Ls Rs
Sampling rate : 48.0 kHz
Frame rate : 31.250 FPS (1536 SPF)
Compression mode : Lossy
Stream size : 417 MiB (4%)
Title : Original
Language : English
Service kind : Complete Main
Default : No
Forced : No

Text #1
ID : 4
Format : UTF-8
Codec ID : S_TEXT/UTF8
Codec ID/Info : UTF-8 Plain Text
Duration : 1 h 24 min
Bit rate : 96 b/s
Count of elements : 1030
Stream size : 59.8 KiB (0%)
Title : Russian [Full]
Language : Russian
Default : No
Forced : No

Text #2
ID : 5
Format : UTF-8
Codec ID : S_TEXT/UTF8
Codec ID/Info : UTF-8 Plain Text
Duration : 1 h 24 min
Bit rate : 61 b/s
Count of elements : 1332
Stream size : 38.3 KiB (0%)
Title : Full
Language : English
Default : No
Forced : No

Text #3
ID : 6
Format : UTF-8
Codec ID : S_TEXT/UTF8
Codec ID/Info : UTF-8 Plain Text
Duration : 1 h 24 min
Bit rate : 70 b/s
Count of elements : 1588
Stream size : 44.0 KiB (0%)
Title : SDH
Language : English
Default : No
Forced : No




Скачать Красотка на взводе через торрент https://b.radikal.ru/b34/2108/eb/8a26cc2dfc75.jpg Скачать, смотреть онлайн Красотка на взводе бесплантно в хорошем качестве Описание: Героиня комедийного боевика «Красотка на взводе» Линди работает вышибалой и испытывает серьезные проблемы с контролем гнева. ... 8.8 10 12
Info! Золотая раздача, скачанное не засчитывается.
Торрент: Зарегистрирован [2021-08-12 03:39] · скачан: 291 раз
Статус: √ проверено
Размер: 9.79 GB
Как cкачать? Как скачать Красотка на взводе через торрент | UTorrent

% Раздел Тема Автор DL S | L
Фильмы 2021 [DVDrip, WEB-DLRip, HDrip] (DUB, MVO) [ 1.46 GB ] Красотка на взводе / Jolt | Мосфильм-Мастер | BDRip Twi7ter Скачать
10 | 1
Фильмы [HD 720p, 1080p] (Хороший звук DUB, MVO) [ 7.87 GB ] Красотка на взводе / Jolt | HDRezka Studio | 1080p bober100 Скачать
2 | 0
Ultra HD (UHD: 2K, 4K, 8K) [ 47.17 GB ] Красотка на взводе / Jolt | Мосфильм-Мастер | 2160p bober100 Скачать
1 | 0
Фильмы 2021 [DVDrip, WEB-DLRip, HDrip] (DUB, MVO) [ 2.5 GB ] Красотка на взводе / Jolt | HDRezka Studio | HDRip-AVC Lithuania Скачать
1 | 0
Фильмы [HD 720p, 1080p] (Хороший звук DUB, MVO) [ 3.73 GB ] Красотка на взводе / Jolt | HDRezka Studio | 720p bober100 Скачать
1 | 0
Фильмы 2021 [DVDrip, WEB-DLRip, HDrip] (DUB, MVO) [ 746 MB ] Красотка на взводе / Jolt | Мосфильм-Мастер | BDRip bober100 Скачать
1 | 0
Фильмы 2021 [DVDrip, WEB-DLRip, HDrip] (DUB, MVO) [ 1.46 GB ] Красотка на взводе / Jolt | Мосфильм-Мастер | BDRip bober100 Скачать
1 | 0

28-11-2019 20:33  


Отключить вcю реклaмy на сайте, в т.ч. и в плеере онлайн просмотра!

    Дорогой пользователь! Огромная просьба, поблагодарите релизера, оцените раздачу и оставьте свои комментарий, если Вы скачали Красотка на взводе через торрент бесплатно!!
    Комментировать посты могут только пользователи прошедшие не сложную регистрацию
    Показать сообщения:    


    Красотка на взводе через торрент
    Скачать бесплатно Красотка на взводе
    Красотка на взводе скачать торрент
    Красотка на взводе смотреть онлайн
    Cкачать фильм Красотка на взводе бесплатно
    Красотка на взводе скачать торрент в хорошем качестве
    Красотка на взводе смотреть онлайн бесплатно в хорошем качестве
    Вы не можете начинать темы
    Вы не можете отвечать на сообщения
    Вы не можете редактировать свои сообщения
    Вы не можете удалять свои сообщения
    Вы не можете голосовать в опросах
    Вы не можете прикреплять файлы к сообщениям
    Вы можете скачивать файлы
    Красотка на взводе / Jolt [2021, Боевик, комедия, UHD WEB-DL 2160p] Дубляж [iTunes] смотреть онлайн, скачать торрент picoco.icu