Достать ножи: Стеклянная луковица

MVO

Добыча

Дубляж

Уэнсдэй

1 сезон

Тор

Дубляж

13 клиническая

1 сезон

Жестокая ночь

MVO

Одни из нас

1 сезон

Deluxe

pack

Рекомендуем

30

Пиратка

ВАЖНО

ВАЖНО

Ghostwire

Пиратка

jed

RePack

nioh2

RePack

RDR2

RePack

NEED FOR SPEED™ PAYBACK

RePack

скачать торрент

Кинопоиск HD

Острые козырьки 6 сезон

6 сезон

FAR CRY 6

RePack

скачать торрент

Лицензия

скачать торрент

MVO

1

1 сезон

скачать торрент

1 сезон

скачать торрент

Лицензия

  

Космический джем: Новое поколение / Space Jam: A New Legacy (Малкольм Д. Ли) [2021, Комедия, фэнтези, анимационный, приключения, семейный, спорт, UHD BDRemux 2160p] Дубляж [Кинопоиск HD]

Космический джем: Новое поколение через торрент piratbit.org

Размер: 46.45 GB | Добавлен: 1 год 3 мес. назад | Торрент скачан:40 раз
Смотреть онлайн | Скачать | Поддержите нас   

12-08-2021 18:07 Космический джем: Новое поколение Скачать торрент  

Космический джем: Новое поколение
Space Jam: A New Legacy

Год выпуска: 2021
Страна: США
Студия: Warner Bros.Warner Animation Group, Spring, Hill Entertainment
Жанр: Комедия, фэнтези, анимационный, приключения, семейный, спорт
Продолжительность: 01:55:31
Перевод: Дублированный | Кинопоиск HD
Субтитры: Русские (Forced, full), английские

Режиссер: Малкольм Д. Ли

rating

В ролях: Леброн Джеймс, Алекс Уэрта, Дон Чидл, Сонекуа Мартин-Грин, Кейар Джей Райт, Мартин Клебба, Ксоша Рокьюмор, Крис Дэвис, Скайлер Библ, Уитни Колмен, Питер Корнелл, Хассан Сэд, Деррик Гилберт, Дж. Лэйн Хиллман, Эрик Шекелфорд, Кассандра Старр, Харрисон Уайт

Описание: Суперзвезда баскетбола Леброн Джеймс вместе с маленьким сыном попадает в ловушку виртуальной реальности из-за недоброжелательного искусственного интеллекта. Чтобы выбраться на свободу, Леброн вместе с командой мультяшных персонажей должен выстоять на баскетбольной «дуэли» против цифровых двойников великих чемпионов. Продолжение баскетбольной фэнтези-комедии 1996 года. Сиквел фильма "Космический джем" (1996). Баскетболист Леброн Джеймс вместе с Багзом Банни попадают в ловушку виртуального пространства из-за мошеннического алгоритма Al-G Rhythm. Леброну предстоит разгадать план таинственного злодея и принять участие в эпическом баскетбольном матче, где его противниками станут цифровые версии суперзвезд баскетбола.

Качество: UHD BDRemux 2160p
Формат: MKV

Видео: 3840x2160 at 23.976 fps, MPEG-H HEVC HDR Video, 54000 kbps avg
Аудио #01: 48 kHz, AC3, 5.1, 448 Kbps | Дублированный | RUS |
Аудио #02: 48 kHz, TrueHD, 7.1, 2647 Kbps | Оригинал | ENG |
Аудио #03: 48 kHz, E-AC3, 5.1, 448 Kbps | Оригинал | ENG |
скриншот  скриншот  скриншот  скриншот  скриншот  

General
Unique ID : 294554543689593599478817334265565809761 (0xDD99243F8D0B96088750A8DDAFE60C61)
Complete name : E:VideoSpace.Jam.A.New.Legacy.2021.BDREMUX.2160p.HDR.seleZen.mkv
Format : Matroska
Format version : Version 4
File size : 46.5 GiB
Duration : 1 h 55 min
Overall bit rate mode : Variable
Overall bit rate : 57.6 Mb/s
Movie name : Space Jam: A New Legacy 2021 from seleZen
Encoded date : UTC 2021-10-02 15:33:39
Writing application : mkvmerge v59.0.0 ('Shining Star') 64-bit
Writing library : libebml v1.4.2 + libmatroska v1.6.4
Attachments : poster.jpg

Video
ID : 1
Format : HEVC
Format/Info : High Efficiency Video Coding
Format profile : Main 10@L5.1@High
HDR format : SMPTE ST 2086, HDR10 compatible
Codec ID : V_MPEGH/ISO/HEVC
Duration : 1 h 55 min
Bit rate : 54.0 Mb/s
Width : 3 840 pixels
Height : 2 160 pixels
Display aspect ratio : 16:9
Frame rate mode : Constant
Frame rate : 23.976 (24000/1001) FPS
Color space : YUV
Chroma subsampling : 4:2:0 (Type 2)
Bit depth : 10 bits
Bits/(Pixel*Frame) : 0.271
Stream size : 43.5 GiB (94%)
Writing library : ATEME Titan File 3.9.6 (4.9.6.2)
Language : English
Default : Yes
Forced : No
Color range : Limited
Color primaries : BT.2020
Transfer characteristics : PQ
Matrix coefficients : BT.2020 non-constant
Mastering display color primaries : Display P3
Mastering display luminance : min: 0.0001 cd/m2, max: 1000 cd/m2
Maximum Content Light Level : 677 cd/m2
Maximum Frame-Average Light Level : 233 cd/m2

Audio #1
ID : 2
Format : AC-3
Format/Info : Audio Coding 3
Commercial name : Dolby Digital
Codec ID : A_AC3
Duration : 1 h 55 min
Bit rate mode : Constant
Bit rate : 448 kb/s
Channel(s) : 6 channels
Channel layout : L R C LFE Ls Rs
Sampling rate : 48.0 kHz
Frame rate : 31.250 FPS (1536 SPF)
Compression mode : Lossy
Stream size : 370 MiB (1%)
Title : Дубляж
Language : Russian
Service kind : Complete Main
Default : Yes
Forced : Yes

Audio #2
ID : 3
Format : MLP FBA 16-ch
Format/Info : Meridian Lossless Packing FBA with 16-channel presentation
Commercial name : Dolby TrueHD with Dolby Atmos
Codec ID : A_TRUEHD
Duration : 1 h 55 min
Bit rate mode : Variable
Bit rate : 2 647 kb/s
Maximum bit rate : 4 002 kb/s
Channel(s) : 8 channels
Channel layout : L R C LFE Ls Rs Lb Rb
Sampling rate : 48.0 kHz
Frame rate : 1 200.000 FPS (40 SPF)
Compression mode : Lossless
Stream size : 2.14 GiB (5%)
Title : Original
Language : English
Default : No
Forced : No
Number of dynamic objects : 11
Bed channel count : 1 channel
Bed channel configuration : LFE

Audio #3
ID : 4
Format : AC-3
Format/Info : Audio Coding 3
Commercial name : Dolby Digital
Format settings : Dolby Surround EX
Codec ID : A_AC3
Duration : 1 h 55 min
Bit rate mode : Constant
Bit rate : 448 kb/s
Channel(s) : 6 channels
Channel layout : L R C LFE Ls Rs
Sampling rate : 48.0 kHz
Frame rate : 31.250 FPS (1536 SPF)
Compression mode : Lossy
Stream size : 370 MiB (1%)
Language : English
Service kind : Complete Main
Default : No
Forced : No

Text #1
ID : 5
Format : UTF-8
Codec ID : S_TEXT/UTF8
Codec ID/Info : UTF-8 Plain Text
Duration : 1 h 54 min
Bit rate : 5 b/s
Count of elements : 122
Stream size : 4.49 KiB (0%)
Title : Forced
Language : Russian
Default : Yes
Forced : Yes

Text #2
ID : 6
Format : UTF-8
Codec ID : S_TEXT/UTF8
Codec ID/Info : UTF-8 Plain Text
Duration : 1 h 55 min
Bit rate : 117 b/s
Count of elements : 1963
Stream size : 98.9 KiB (0%)
Title : Full
Language : Russian
Default : No
Forced : No

Text #3
ID : 7
Format : UTF-8
Codec ID : S_TEXT/UTF8
Codec ID/Info : UTF-8 Plain Text
Duration : 1 h 55 min
Bit rate : 66 b/s
Count of elements : 2113
Stream size : 56.4 KiB (0%)
Title : Full
Language : English
Default : No
Forced : No

Text #4
ID : 8
Format : UTF-8
Codec ID : S_TEXT/UTF8
Codec ID/Info : UTF-8 Plain Text
Duration : 1 h 55 min
Bit rate : 88 b/s
Count of elements : 2655
Stream size : 74.5 KiB (0%)
Title : SDH
Language : English
Default : No
Forced : No

Menu
00:00:00.000 : Chapter 01
00:08:57.036 : Chapter 02
00:14:28.493 : Chapter 03
00:19:20.993 : Chapter 04
00:25:11.176 : Chapter 05
00:34:42.539 : Chapter 06
00:42:10.695 : Chapter 07
00:50:33.864 : Chapter 08
00:56:00.732 : Chapter 09
01:03:57.459 : Chapter 10
01:08:39.824 : Chapter 11
01:17:40.865 : Chapter 12
01:24:07.125 : Chapter 13
01:31:58.888 : Chapter 14
01:39:33.050 : Chapter 15
01:48:15.864 : Chapter 16




Скачать Космический джем: Новое поколение через торрент https://st-kp-yandex-net.translate.goog/images/film_iphone/iphone360_841747.jpg Скачать, смотреть онлайн Космический джем: Новое поколение бесплантно в хорошем качестве Описание: Суперзвезда баскетбола Леброн Джеймс вместе с маленьким сыном попадает в ловушку виртуальной реальности из-за недоброжелательного ... 9 10 9
Торрент: Зарегистрирован [2021-10-02 18:21] · скачан: 40 раз
Статус: √ проверено
Размер: 46.45 GB
Как cкачать? Как скачать Космический джем: Новое поколение через торрент | UTorrent

% Раздел Тема Автор DL S | L
Фильмы (Blu-ray, BD-Remux, HDDVD) [ 25.33 GB ] Космический джем: Новое поколение / Space Jam: A New Legacy | DUB | BD Remux 1080p bober100 Скачать
1 | 0
Фильмы [HD 720p, 1080p] (Хороший звук DUB, MVO) [ 15.81 GB ] Космический джем: Новое поколение / Space Jam: A New Legacy | DUB | 1080p bober100 Скачать
1 | 0
Фильмы 2021 [DVDrip, WEB-DLRip, HDrip] (DUB, MVO) [ 2.24 GB ] Космический джем: Новое поколение / Space Jam: A New Legacy | DUB | DLRip-AVC Lithuania Скачать
2 | 0
Фильмы 2021 [DVDrip, WEB-DLRip, HDrip] (DUB, MVO) [ 2.18 GB ] Космический джем: Новое поколение / Space Jam: A New Legacy | Кинопоиск HD | BDRip Twi7ter Скачать
8 | 0
Фильмы 2021 [DVDrip, WEB-DLRip, HDrip] (DUB, MVO) [ 1.46 GB ] Космический джем: Новое поколение / Space Jam: A New Legacy | Кинопоиск HD | BDRip Twi7ter Скачать
17 | 0

28-11-2019 20:33  


Отключить вcю реклaмy на сайте, в т.ч. и в плеере онлайн просмотра!

    Дорогой пользователь! Огромная просьба, поблагодарите релизера, оцените раздачу и оставьте свои комментарий, если Вы скачали Космический джем: Новое поколение через торрент бесплатно!!
    Комментировать посты могут только пользователи прошедшие не сложную регистрацию
    Показать сообщения:    


    Космический джем: Новое поколение через торрент
    Скачать бесплатно Космический джем: Новое поколение
    Космический джем: Новое поколение скачать торрент
    Космический джем: Новое поколение смотреть онлайн
    Cкачать фильм Космический джем: Новое поколение бесплатно
    Космический джем: Новое поколение скачать торрент в хорошем качестве
    Космический джем: Новое поколение смотреть онлайн бесплатно в хорошем качестве
    Вы не можете начинать темы
    Вы не можете отвечать на сообщения
    Вы не можете редактировать свои сообщения
    Вы не можете удалять свои сообщения
    Вы не можете голосовать в опросах
    Вы не можете прикреплять файлы к сообщениям
    Вы можете скачивать файлы
    Космический джем: Новое поколение / Space Jam: A New Legacy [2021, Комедия, фэнтези, анимационный, приключения, семейный, спорт, UHD BDRemux 2160p] Дубляж [Кинопоиск HD] смотреть онлайн, скачать торрент picoco.icu