>

5.6

iTunes

6.1

MVO

5.7

MVO

1

7.4

1 сезон

6.8

iTunes

7.2

1 сезон

13

6.7

1 сезон

8.3

RePack

30

Deluxe

pack

9.9

Лицензия

ВАЖНО

ИГРА 18+

pack

7.3

RePack

MK11

7.7

RePack

jed

7.8

RePack

fifa19

8.5

RePack

RDR2

RePack

NEED FOR SPEED™ PAYBACK

4 сезон

9 сезон

Бесстыжие 9 сезон

Все сериалы

все сериалы на PB.wtf

RePack

FAR CRY 5

Anonymous, добрый вечер, мы катастрофически не успеваем собрать деньги на оплату серверов, помогите нам пожалуйста 5,10,15р., для нас важна любая помощь . В качестве благодарности мы отключим Вам всю рекламу на сайте (укажите свой ник в строку Ваше имя)!

×
  
Magnet ссылка

Хилы / Heels / Сезон: 1 / Серии: 1-5 из 8 (Питер Сигал, Джессика Лори) [2021, Драма, спорт, WEB-DL 1080p] MVO [AlexFilm] piratbit.org

Хилы через торрент piratbit.org

Качают: 1 [ 0 KB/s ]
Размер: 21.06 GB | Добавлен: 4 д. назад | Торрент скачан:1 раз
Смотреть онлайн Хилы | Скачать    Ребята, помогите собрать деньги на оплату серверов!!!

19-08-2021 22:45 Хилы Скачать торрент  

Хилы | Heels
Год выпуска: 2021
Страна: США
Выпущено: Lionsgate Television, Paramount Television
Жанр: Драма, спорт
Продолжительность: ~ 01:00:00
Перевод: Профессиональный (многоголосый) | AlexFilm
Субтитры: Английские (SDH)

Режиссер: Питер Сигал, Джессика Лори

rating

В ролях: Стивен Амелл, Александр Людвиг, Элисон Лафф, Кристофер Бауэр, Келли Бергланд, Найджел Крокер, Рокстон Гарсия, Мелисса Лиэллен, Мэри МакКормак, Робби Рамос, Элис Баррет, Пи Джей Хоукс, Дюк Дэвис Робертс, Дэвид Джеймс Эллиотт

Описание: Хилом (Heel) называют спортсмена, который использует во время боя грязные приёмы, грубит зрителям и вызывает своим поведением всеобщий гнев. История двух братьев-рестлеров, которые почти не разграничивают семейные отношения и конфликт на боевой сцене. Такой накал страстей идёт на пользу шоу, а вот самим родственникам — вряд ли. Им предстоит разобраться, кто всё же главный хил.

Качество: WEB-DL 1080p
Формат: MKV

Видео: MPEG-4 AVC, 1920x1080 (16:9), 23.976 fps, ~ 9300 Kbps
Аудио Rus: AC3, 48,0 kHz, 6 ch, 384 kbps | AlexFilm
Аудио Eng: AC3, 48,0 kHz, 6 ch, 640 kbps | Original
скриншот  скриншот  скриншот  скриншот  

Complete name : D:Heels_(s01)_AlexFilm_1080pHeels.2021.S01E01.Kayfabe.REPACK.1080p.AMZN.WEB-DL.DD5.1.x264-TEPES_EniaHD.mkv
Format : Matroska
Format version : Version 4
File size : 4.49 GiB
Duration : 1 h 2 min
Overall bit rate : 10.3 Mb/s
Encoded date : UTC 2021-08-19 22:29:49
Writing application : mkvmerge v58.0.0 ('Supper's Ready') 64-bit
Writing library : libebml v1.4.2 + libmatroska v1.6.4

Video
ID : 1
Format : AVC
Format/Info : Advanced Video Codec
Format profile : High@L4
Format settings : CABAC / 4 Ref Frames
Format settings, CABAC : Yes
Format settings, Reference : 4 frames
Codec ID : V_MPEG4/ISO/AVC
Duration : 1 h 2 min
Bit rate mode : Constant
Bit rate : 9 304 kb/s
Nominal bit rate : 10 000 kb/s
Width : 1 920 pixels
Height : 1 080 pixels
Display aspect ratio : 16:9
Frame rate mode : Constant
Frame rate : 23.976 (24000/1001) FPS
Color space : YUV
Chroma subsampling : 4:2:0
Bit depth : 8 bits
Scan type : Progressive
Bits/(Pixel*Frame) : 0.187
Stream size : 4.04 GiB (90%)
Title : Release by EniaHD
Language : English
Default : Yes
Forced : No
Color range : Limited
Color primaries : BT.709
Transfer characteristics : BT.709
Matrix coefficients : BT.709

Audio #1
ID : 2
Format : AC-3
Format/Info : Audio Coding 3
Commercial name : Dolby Digital
Codec ID : A_AC3
Duration : 1 h 2 min
Bit rate mode : Constant
Bit rate : 384 kb/s
Channel(s) : 6 channels
Channel layout : L R C LFE Ls Rs
Sampling rate : 48.0 kHz
Frame rate : 31.250 FPS (1536 SPF)
Compression mode : Lossy
Stream size : 171 MiB (4%)
Title : AlexFilm
Language : Russian
Service kind : Complete Main
Default : Yes
Forced : No

Audio #2
ID : 3
Format : AC-3
Format/Info : Audio Coding 3
Commercial name : Dolby Digital
Codec ID : A_AC3
Duration : 1 h 2 min
Bit rate mode : Constant
Bit rate : 640 kb/s
Channel(s) : 6 channels
Channel layout : L R C LFE Ls Rs
Sampling rate : 48.0 kHz
Frame rate : 31.250 FPS (1536 SPF)
Compression mode : Lossy
Stream size : 285 MiB (6%)
Language : English
Service kind : Complete Main
Default : No
Forced : No

Text
ID : 4
Format : UTF-8
Codec ID : S_TEXT/UTF8
Codec ID/Info : UTF-8 Plain Text
Duration : 1 h 1 min
Bit rate : 79 b/s
Count of elements : 1267
Stream size : 35.9 KiB (0%)
Title : SDH
Language : English
Default : No
Forced : No

Когда раздача ведётся путём добавления новых серий, при каждом добавлении создётся новый торрент. Чтобы начать докачку новой серии, пользователям необходимо сделать следующее:
(1) остановить скачивание,
(2) удалить старый торрент у себя из клиента (старые серии удалять не надо),
(3) скачать новый торрент и запустить его у себя в клиенте вместо старого, при этом указать клиенту путь в старую папку, куда и должно происходить скачивание новых серий.
Ваш клиент при этом должен произвести хеширование (проверку) старой папки (если не производит сам - помогите ему сделать это), и будет докачивать только те серии, которых у вас ещё нет. Старые серии при этом не удаляются, а продолжают раздаваться!
Eсли вы уже удалили старые серии, то предотвратить повторную закачку старых серий можно, отжав галочку в соответсвующих местах при запуске нового торрента. По возможности, желательно не удалять старые серии как можно дольше, чтобы релизёр не столько продолжал раздавать старые серии, а смог сконцентрироваться на новых.

piratbit.org



Скачать Хилы через торрент https://a.radikal.ru/a30/2108/a1/7f8f2ac118e3.png Скачать, смотреть онлайн Хилы бесплантно в хорошем качестве Описание: Хилом (Heel) называют спортсмена, который использует во время боя грязные приёмы, грубит зрителям и вызывает своим поведением ... 10 10 3
Торрент: Зарегистрирован [2021-09-14 22:46] · скачан: 1 раз
Статус: √ проверено
Размер: 21.06 GB
Как cкачать? Как скачать Хилы через торрент | UTorrent

% Раздел Тема Автор DL S | L
Зарубежные сериалы [ 10.07 GB ] Хилы / Heels / Сезон: 1 / Серии: 1-5 из 8 [2021 WEB-DL 1080p] 2x[MVO] killermax2013 Скачать
3 | 0
Зарубежные сериалы [ 5.65 GB ] Хилы / Heels / Сезон: 1 / Серии: 1-5 из 8 [2021 WEB-DLRip] MVO [Novamedia / Amedia] bober100 Скачать
2 | 1

28-11-2019 20:33  

Отключить всю рекламу на сайте

    Дорогой пользователь! Огромная просьба, поблагодарите релизера, оцените раздачу и оставьте свои комментарий, если Вы скачали Хилы через торрент бесплатно!
    Комментировать посты могут только пользователи прошедшие не сложную регистрацию
    Показать сообщения:    

    Хилы через торрент
    Скачать бесплатно Хилы
    Хилы скачать торрент
    Хилы смотреть онлайн
    Cкачать фильм Хилы бесплатно
    Хилы скачать торрент в хорошем качестве
    Хилы смотреть онлайн бесплатно в хорошем качестве


    Вы не можете начинать темы
    Вы не можете отвечать на сообщения
    Вы не можете редактировать свои сообщения
    Вы не можете удалять свои сообщения
    Вы не можете голосовать в опросах
    Вы не можете прикреплять файлы к сообщениям
    Вы можете скачивать файлы