Достать ножи: Стеклянная луковица

MVO

Добыча

Дубляж

Уэнсдэй

1 сезон

Тор

Дубляж

13 клиническая

1 сезон

Жестокая ночь

MVO

Одни из нас

1 сезон

Deluxe

pack

Рекомендуем

30

Пиратка

ВАЖНО

ВАЖНО

Ghostwire

Пиратка

jed

RePack

nioh2

RePack

RDR2

RePack

NEED FOR SPEED™ PAYBACK

RePack

скачать торрент

Кинопоиск HD

Острые козырьки 6 сезон

6 сезон

FAR CRY 6

RePack

скачать торрент

Лицензия

скачать торрент

MVO

1

1 сезон

скачать торрент

1 сезон

скачать торрент

Лицензия

  

Заклятие 3: По воле дьявола / The Conjuring: The Devil Made Me Do It (Майкл Чавес) [2021, Ужасы, детектив, UHD BDRemux 2160p] Дубляж [Пифагор]

Заклятие 3: По воле дьявола через торрент piratbit.org

Размер: 48.8 GB | Добавлен: 1 год 5 мес. назад | Торрент скачан:39 раз
Смотреть онлайн | Скачать | Поддержите нас   

19-08-2021 23:07 Заклятие 3: По воле дьявола Скачать торрент  

Заклятие 3: По воле дьявола | The Conjuring: The Devil Made Me Do It
Год выпуска: 2021
Страна: США, Великобритания
Студия: New Line Cinema, Atomic Monster, The Safran Company
Жанр: Ужасы, детектив
Продолжительность: 01:51:53
Перевод: Дублированный | Пифагор
Субтитры: Русские (Forced, 2 x full), английские

Режиссер: Майкл Чавес

rating

В ролях: Патрик Уилсон, Вера Фармига, Руаири О Коннор, Сара Кэтрин Хук, Джулиан Хиллиард, Джон Ноубл, Эжени Бондюран, Шэннон Кук-Чун, Ронни Джин Блевинс, Кит А. Болден

Описание: Леденящая кровь история ужасающего убийства, которая поразила даже опытных исследователей паранормальных явлений Эда и Лоррейн Уорренов. Одно из их самых сенсационных дел началось с борьбы за душу юноши, а привело к тому, чего они ни разу не видели за свою практику — впервые в истории США подозреваемый в убийстве в свою защиту заявил, что был одержим демоном.

Качество: UHD BDRemux 2160p
Формат: MKV

Видео: 3840x2160 at 23.976 fps, MPEG-H HEVC HDR Video, ~ 57600 kbps avg
Аудио #01: 48 kHz, AC3, 5.1, 448 Kbps | Дублированный | RUS |
Аудио #02: 48 kHz, TrueHD, 7.1, 3857 Kbps | Оригинал | ENG |
Аудио #03: 48 kHz, AC3, 5.1, 448 Kbps | Оригинал | ENG |
скриншот  скриншот  скриншот  скриншот  скриншот  

General
Unique ID : 111520079727102239893657788592174986719 (0x53E5FC70B392EA075B699ED5CB18F5DF)
Complete name : F:VideoThe.Conjuring.The.Devil.Made.Me.Do.It.2021.BDREMUX.2160p.HDR.seleZen.mkv
Format : Matroska
Format version : Version 4
File size : 48.8 GiB
Duration : 1 h 51 min
Overall bit rate mode : Variable
Overall bit rate : 62.4 Mb/s
Movie name : The Conjuring: The Devil Made Me Do It 2021 4K from seleZen
Encoded date : UTC 2021-08-19 13:03:58
Writing application : mkvmerge v59.0.0 ('Shining Star') 64-bit
Writing library : libebml v1.4.2 + libmatroska v1.6.4

Video
ID : 1
Format : HEVC
Format/Info : High Efficiency Video Coding
Format profile : Main 10@L5.1@High
HDR format : SMPTE ST 2086, HDR10 compatible
Codec ID : V_MPEGH/ISO/HEVC
Duration : 1 h 51 min
Bit rate : 57.6 Mb/s
Width : 3 840 pixels
Height : 2 160 pixels
Display aspect ratio : 16:9
Frame rate mode : Constant
Frame rate : 23.976 (24000/1001) FPS
Color space : YUV
Chroma subsampling : 4:2:0 (Type 2)
Bit depth : 10 bits
Bits/(Pixel*Frame) : 0.290
Stream size : 45.0 GiB (92%)
Language : English
Default : Yes
Forced : No
Color range : Limited
Color primaries : BT.2020
Transfer characteristics : PQ
Matrix coefficients : BT.2020 non-constant
Mastering display color pri : Display P3
Mastering display luminance : min: 0.0050 cd/m2, max: 4000 cd/m2
Maximum Content Light Level : 514 cd/m2
Maximum Frame-Average Light : 91 cd/m2

Audio #1
ID : 2
Format : AC-3
Format/Info : Audio Coding 3
Commercial name : Dolby Digital
Codec ID : A_AC3
Duration : 1 h 51 min
Bit rate mode : Constant
Bit rate : 448 kb/s
Channel(s) : 6 channels
Channel layout : L R C LFE Ls Rs
Sampling rate : 48.0 kHz
Frame rate : 31.250 FPS (1536 SPF)
Compression mode : Lossy
Stream size : 358 MiB (1%)
Title : Дубляж [Пифагор]
Language : Russian
Service kind : Complete Main
Default : Yes
Forced : Yes

Audio #2
ID : 3
Format : MLP FBA 16-ch
Format/Info : Meridian Lossless Packing FBA with 16-channel presentation
Commercial name : Dolby TrueHD with Dolby Atmos
Codec ID : A_TRUEHD
Duration : 1 h 51 min
Bit rate mode : Variable
Bit rate : 3 857 kb/s
Maximum bit rate : 8 283 kb/s
Channel(s) : 8 channels
Channel layout : L R C LFE Ls Rs Lb Rb
Sampling rate : 48.0 kHz
Frame rate : 1 200.000 FPS (40 SPF)
Compression mode : Lossless
Stream size : 3.01 GiB (6%)
Title : Original
Language : English
Default : No
Forced : No
Number of dynamic objects : 11
Bed channel count : 1 channel
Bed channel configuration : LFE

Audio #3
ID : 4
Format : AC-3
Format/Info : Audio Coding 3
Commercial name : Dolby Digital
Format settings : Dolby Surround EX
Codec ID : A_AC3
Duration : 1 h 51 min
Bit rate mode : Constant
Bit rate : 448 kb/s
Channel(s) : 6 channels
Channel layout : L R C LFE Ls Rs
Sampling rate : 48.0 kHz
Frame rate : 31.250 FPS (1536 SPF)
Compression mode : Lossy
Stream size : 359 MiB (1%)
Language : English
Service kind : Complete Main
Default : No
Forced : No

Text #1
ID : 5
Format : UTF-8
Codec ID : S_TEXT/UTF8
Codec ID/Info : UTF-8 Plain Text
Duration : 1 h 45 min
Bit rate : 4 b/s
Count of elements : 65
Stream size : 3.77 KiB (0%)
Title : Forced
Language : Russian
Default : Yes
Forced : Yes

Text #2
ID : 6
Format : UTF-8
Codec ID : S_TEXT/UTF8
Codec ID/Info : UTF-8 Plain Text
Duration : 1 h 50 min
Bit rate : 61 b/s
Count of elements : 978
Stream size : 50.3 KiB (0%)
Title : Full v.1
Language : Russian
Default : No
Forced : No

Text #3
ID : 7
Format : UTF-8
Codec ID : S_TEXT/UTF8
Codec ID/Info : UTF-8 Plain Text
Duration : 1 h 45 min
Bit rate : 58 b/s
Count of elements : 1009
Stream size : 45.5 KiB (0%)
Title : Full v.2
Language : Russian
Default : No
Forced : No

Text #4
ID : 8
Format : UTF-8
Codec ID : S_TEXT/UTF8
Codec ID/Info : UTF-8 Plain Text
Duration : 1 h 45 min
Bit rate : 41 b/s
Count of elements : 1030
Stream size : 32.5 KiB (0%)
Title : Full
Language : English
Default : No
Forced : No

Menu
00:00:00.000 : Chapter 01
00:11:09.502 : Chapter 02
00:20:04.286 : Chapter 03
00:30:26.074 : Chapter 04
00:39:40.253 : Chapter 05
00:50:33.572 : Chapter 06
01:00:03.683 : Chapter 07
01:11:42.089 : Chapter 08
01:19:42.778 : Chapter 09
01:31:43.998 : Chapter 10
01:40:57.301 : Chapter 11




Скачать Заклятие 3: По воле дьявола через торрент https://a.radikal.ru/a21/2108/e2/d1b12251adcf.jpg Скачать, смотреть онлайн Заклятие 3: По воле дьявола бесплантно в хорошем качестве Описание: Леденящая кровь история ужасающего убийства, которая поразила даже опытных исследователей паранормальных явлений Эда и Лоррейн ... 10 10 2
Торрент: Зарегистрирован [2021-08-19 23:07] · скачан: 39 раз
Статус: √ проверено
Размер: 48.8 GB
Как cкачать? Как скачать Заклятие 3: По воле дьявола через торрент | UTorrent

% Раздел Тема Автор DL S | L
Ultra HD (UHD: 2K, 4K, 8K) [ 19.9 GB ] Заклятие 3: По воле дьявола / The Conjuring: The Devil Made Me Do It | Пифагор | 2160p, (SDR bober100 Скачать
1 | 0
Фильмы 2021 [DVDrip, WEB-DLRip, HDrip] (DUB, MVO) [ 2.18 GB ] Заклятие 3: По воле дьявола / The Conjuring: The Devil Made Me Do It | Пифагор | BDRip Twi7ter Скачать
3 | 0
Фильмы 2021 [DVDrip, WEB-DLRip, HDrip] (DUB, MVO) [ 1.46 GB ] Заклятие 3: По воле дьявола / The Conjuring: The Devil Made Me Do It | Пифагор | BDRip Twi7ter Скачать
6 | 0
Фильмы 2021 [DVDrip, WEB-DLRip, HDrip] (DUB, MVO) [ 2.13 GB ] Заклятие 3: По воле дьявола / The Conjuring: The Devil Made Me Do It | iTunes | BDRip bober100 Скачать
1 | 0
Фильмы (WEB-DL 720p, 1080p) [ 7.66 GB ] Заклятие 3: По воле дьявола / The Conjuring: The Devil Made Me Do It | iTunes | 1080p bober100 Скачать
2 | 0
Фильмы 2021 [DVDrip, WEB-DLRip, HDrip] (DUB, MVO) [ 1.41 GB ] Заклятие 3: По воле дьявола / The Conjuring: The Devil Made Me Do It | iTunes | BDRip bober100 Скачать
1 | 0
Фильмы 2021 [DVDrip, WEB-DLRip, HDrip] (DUB, MVO) [ 2.8 GB ] Заклятие 3: По воле дьявола / The Conjuring: The Devil Made Me Do It | iTunes | HDRip-AVC Lithuania Скачать
1 | 0

28-11-2019 20:33  


Отключить вcю реклaмy на сайте, в т.ч. и в плеере онлайн просмотра!

    Дорогой пользователь! Огромная просьба, поблагодарите релизера, оцените раздачу и оставьте свои комментарий, если Вы скачали Заклятие 3: По воле дьявола через торрент бесплатно!!
    Комментировать посты могут только пользователи прошедшие не сложную регистрацию
    Показать сообщения:    


    Заклятие 3: По воле дьявола через торрент
    Скачать бесплатно Заклятие 3: По воле дьявола
    Заклятие 3: По воле дьявола скачать торрент
    Заклятие 3: По воле дьявола смотреть онлайн
    Cкачать фильм Заклятие 3: По воле дьявола бесплатно
    Заклятие 3: По воле дьявола скачать торрент в хорошем качестве
    Заклятие 3: По воле дьявола смотреть онлайн бесплатно в хорошем качестве
    Вы не можете начинать темы
    Вы не можете отвечать на сообщения
    Вы не можете редактировать свои сообщения
    Вы не можете удалять свои сообщения
    Вы не можете голосовать в опросах
    Вы не можете прикреплять файлы к сообщениям
    Вы можете скачивать файлы
    Заклятие 3: По воле дьявола / The Conjuring: The Devil Made Me Do It [2021, Ужасы, детектив, UHD BDRemux 2160p] Дубляж [Пифагор] смотреть онлайн, скачать торрент picoco.icu