>

5.6

iTunes

6.1

MVO

5.7

MVO

1

7.4

1 сезон

6.8

iTunes

7.2

1 сезон

13

6.7

1 сезон

8.3

RePack

30

Deluxe

pack

9.9

Лицензия

ВАЖНО

ИГРА 18+

pack

7.3

RePack

MK11

7.7

RePack

jed

7.8

RePack

fifa19

8.5

RePack

RDR2

RePack

NEED FOR SPEED™ PAYBACK

4 сезон

9 сезон

Бесстыжие 9 сезон

Все сериалы

все сериалы на PB.wtf

RePack

FAR CRY 5

Anonymous, добрый день, мы катастрофически не успеваем собрать деньги на оплату серверов, помогите нам пожалуйста 5,10,15р., для нас важна любая помощь . В качестве благодарности мы отключим Вам всю рекламу на сайте (укажите свой ник в строку Ваше имя)!

×
  
Magnet ссылка

Мой шумный дом / The Loud House (Дэйв Нидэм) [2021, Мультфильм, мюзикл, комедия, приключения, семейный, WEB-DL 1080p] DUB (rus, ukr) [SDI Media / Netflix] piratbit.org

Мой шумный дом через торрент piratbit.org

Раздают: 266 [ 4 MB/s ] Качают: 8 [ 3 MB/s ]
Размер: 2.49 GB | Добавлен: 1 мес. 3 д. назад | Торрент скачан:100 раз
Смотреть онлайн Мой шумный дом | Скачать    Ребята, помогите собрать деньги на оплату серверов!!!

20-08-2021 13:25 Мой шумный дом Скачать торрент  

Мой шумный дом | The Loud House
Год выпуска: 2021
Страна: США, Великобритания, Испания, Мексика
Жанр: Мультфильм, мюзикл, комедия, приключения, семейный
Продолжительность: 01:27:37
Перевод: Дублированный | SDI Media по заказу Netflix
Субтитры: Русские (Forced, Full), украинские (Forced, Full), английские, румынские

Режиссер: Дэйв Нидэм

rating

В ролях: Дэвид Теннант, Грэй ДеЛайсли, Мишель Гомес, Билли Бойд, Майкл МакДоналд, Ника Фаттерман, Лилиана Мьюми, Бреанна Иде, Уэйн Брэйди, Лара Джилл Миллер, Карлос Пена, Брайан Степанек, Катрин Табер, Джэссика ДиЧикко, Джилл Телли, Лала Слотмен, Изабелла Альварес, Колин Дин, Андре Робинсон, Кристина Пучелли, Рут Коннелл, Кэти Таунсенд, Ашер Бишоп

Описание: В этом музыкальном путешествии Линкольн Лауд вместе с родителями и 10 сестрами отправляется в Шотландию и узнает, что его семья принадлежит к знатному роду. Мультфильм снят на основе сериала "Мой шумный дом" (2015-2020, Nickelodeon TV).

Качество: WEB-DL 1080p
Формат: MKV

Видео: AVC, 1920x1080 (16:9), 24 fps, ~5604 kbps
Аудио №1: E-AC3, 48 kHz, 6 ch, 640 kbps
Аудио №2: E-AC3, 48 kHz, 6 ch, 640 kbps
Аудио №3: E-AC3, 48 kHz, 6 ch, 640 kbps
скриншот  скриншот  скриншот  скриншот  

General
Unique ID : 158302680416182931555906651422343733151 (0x7717FCBC5A346013FA67BC8E37929F9F)
Complete name : The.Loud.House.2021.1080p.NF.WEB-DL.DDP5.1.x264-EniaHD.mkv
Format : Matroska
Format version : Version 4
File size : 2.49 GiB
Duration : 1 h 27 min
Overall bit rate mode : Variable
Overall bit rate : 4 066 kb/s
Movie name : The Loud House (2021) - EniaHD
Writing application : mkvmerge v57.0.0 ('Till The End') 64-bit
Writing library : libebml v1.4.2 + libmatroska v1.6.4

Video
ID : 1
Format : AVC
Format/Info : Advanced Video Codec
Format profile : Main@L4
Format settings : CABAC / 3 Ref Frames
Format settings, CABAC : Yes
Format settings, Reference fra : 3 frames
Codec ID : V_MPEG4/ISO/AVC
Duration : 1 h 27 min
Bit rate mode : Variable
Bit rate : 2 143 kb/s
Nominal bit rate : 2 370 kb/s
Maximum bit rate : 3 555 kb/s
Width : 1 920 pixels
Height : 1 080 pixels
Display aspect ratio : 16:9
Frame rate mode : Constant
Frame rate : 24.000 FPS
Color space : YUV
Chroma subsampling : 4:2:0
Bit depth : 8 bits
Scan type : Progressive
Bits/(Pixel*Frame) : 0.043
Stream size : 1.31 GiB (53%)
Writing library : x264 core 148 r2722 1b0121b
Encoding settings : cabac=1 / ref=3 / deblock=1:0:0 / analyse=0x1:0x111 / me=umh / subme=10 / psy=1 / psy_rd=1.00:0.00 / mixed_ref=1 / me_range=24 / chroma_me=1 / trellis=2 / 8x8dct=0 / cqm=0 / deadzone=21,11 / fast_pskip=1 / chroma_qp_offset=-2 / threads=8 / lookahead_threads=1 / sliced_threads=0 / nr=0 / decimate=1 / interlaced=0 / bluray_compat=0 / stitchable=1 / constrained_intra=0 / bframes=2 / b_pyramid=0 / b_adapt=2 / b_bias=0 / direct=3 / weightb=1 / open_gop=0 / weightp=2 / keyint=250 / keyint_min=24 / scenecut=0 / intra_refresh=0 / rc_lookahead=48 / rc=2pass / mbtree=1 / bitrate=2370 / ratetol=1.0 / qcomp=0.50 / qpmin=6 / qpmax=51 / qpstep=4 / cplxblur=20.0 / qblur=0.5 / vbv_maxrate=3555 / vbv_bufsize=4740 / nal_hrd=vbr / filler=0 / ip_ratio=1.40 / aq=1:1.00
Default : Yes
Forced : No

Audio #1
ID : 2
Format : E-AC-3
Format/Info : Enhanced AC-3
Commercial name : Dolby Digital Plus
Codec ID : A_EAC3
Duration : 1 h 27 min
Bit rate mode : Constant
Bit rate : 640 kb/s
Channel(s) : 6 channels
Channel layout : L R C LFE Ls Rs
Sampling rate : 48.0 kHz
Frame rate : 31.250 FPS (1536 SPF)
Compression mode : Lossy
Stream size : 401 MiB (16%)
Language : Russian
Service kind : Complete Main
Default : Yes
Forced : No

Audio #2
ID : 3
Format : E-AC-3
Format/Info : Enhanced AC-3
Commercial name : Dolby Digital Plus
Codec ID : A_EAC3
Duration : 1 h 27 min
Bit rate mode : Constant
Bit rate : 640 kb/s
Channel(s) : 6 channels
Channel layout : L R C LFE Ls Rs
Sampling rate : 48.0 kHz
Frame rate : 31.250 FPS (1536 SPF)
Compression mode : Lossy
Stream size : 401 MiB (16%)
Language : Ukrainian
Service kind : Complete Main
Default : No
Forced : No

Audio #3
ID : 4
Format : E-AC-3
Format/Info : Enhanced AC-3
Commercial name : Dolby Digital Plus
Codec ID : A_EAC3
Duration : 1 h 27 min
Bit rate mode : Constant
Bit rate : 640 kb/s
Channel(s) : 6 channels
Channel layout : L R C LFE Ls Rs
Sampling rate : 48.0 kHz
Frame rate : 31.250 FPS (1536 SPF)
Compression mode : Lossy
Stream size : 401 MiB (16%)
Language : English
Service kind : Complete Main
Default : No
Forced : No

Text #1
ID : 5
Format : UTF-8
Codec ID : S_TEXT/UTF8
Codec ID/Info : UTF-8 Plain Text
Duration : 1 h 22 min
Bit rate : 2 b/s
Count of elements : 54
Stream size : 1.37 KiB (0%)
Title : Forced
Language : Russian
Default : Yes
Forced : No

Text #2
ID : 6
Format : UTF-8
Codec ID : S_TEXT/UTF8
Codec ID/Info : UTF-8 Plain Text
Duration : 1 h 22 min
Bit rate : 101 b/s
Count of elements : 1234
Stream size : 61.4 KiB (0%)
Language : Russian
Default : No
Forced : No

Text #3
ID : 7
Format : UTF-8
Codec ID : S_TEXT/UTF8
Codec ID/Info : UTF-8 Plain Text
Duration : 1 h 22 min
Bit rate : 1 b/s
Count of elements : 28
Stream size : 791 Bytes (0%)
Title : Forced
Language : Ukrainian
Default : No
Forced : No

Text #4
ID : 8
Format : UTF-8
Codec ID : S_TEXT/UTF8
Codec ID/Info : UTF-8 Plain Text
Duration : 1 h 22 min
Bit rate : 99 b/s
Count of elements : 1271
Stream size : 60.3 KiB (0%)
Language : Ukrainian
Default : No
Forced : No

Text #5
ID : 9
Format : UTF-8
Codec ID : S_TEXT/UTF8
Codec ID/Info : UTF-8 Plain Text
Duration : 1 h 19 min
Bit rate : 90 b/s
Count of elements : 1597
Stream size : 52.4 KiB (0%)
Title : SDH
Language : English
Default : No
Forced : No

Text #6
ID : 10
Format : UTF-8
Codec ID : S_TEXT/UTF8
Codec ID/Info : UTF-8 Plain Text
Duration : 1 h 22 min
Bit rate : 64 b/s
Count of elements : 1268
Stream size : 38.8 KiB (0%)
Language : German
Default : No
Forced : No

Text #7
ID : 11
Format : UTF-8
Codec ID : S_TEXT/UTF8
Codec ID/Info : UTF-8 Plain Text
Duration : 1 h 22 min
Bit rate : 66 b/s
Count of elements : 1269
Stream size : 40.2 KiB (0%)
Language : Romanian
Default : No
Forced : No

piratbit.org



Скачать Мой шумный дом через торрент https://i7.imageban.ru/out/2021/08/20/d2628affefc6e88c8ff39391ad4aa25c.jpg Скачать, смотреть онлайн Мой шумный дом бесплантно в хорошем качестве Описание: В этом музыкальном путешествии Линкольн Лауд вместе с родителями и 10 сестрами отправляется в Шотландию и узнает, что его семья ... 10 10 8
Торрент: Зарегистрирован [2021-08-20 13:25] · скачан: 100 раз
Статус: √ проверено
Размер: 2.49 GB
Как cкачать? Как скачать Мой шумный дом через торрент | UTorrent

28-11-2019 20:33  

Отключить всю рекламу на сайте

    Дорогой пользователь! Огромная просьба, поблагодарите релизера, оцените раздачу и оставьте свои комментарий, если Вы скачали Мой шумный дом через торрент бесплатно!
    Комментировать посты могут только пользователи прошедшие не сложную регистрацию
    Показать сообщения:    

    Мой шумный дом через торрент
    Скачать бесплатно Мой шумный дом
    Мой шумный дом скачать торрент
    Мой шумный дом смотреть онлайн
    Cкачать фильм Мой шумный дом бесплатно
    Мой шумный дом скачать торрент в хорошем качестве
    Мой шумный дом смотреть онлайн бесплатно в хорошем качестве


    Вы не можете начинать темы
    Вы не можете отвечать на сообщения
    Вы не можете редактировать свои сообщения
    Вы не можете удалять свои сообщения
    Вы не можете голосовать в опросах
    Вы не можете прикреплять файлы к сообщениям
    Вы можете скачивать файлы