Достать ножи: Стеклянная луковица

MVO

Добыча

Дубляж

Уэнсдэй

1 сезон

Тор

Дубляж

13 клиническая

1 сезон

Жестокая ночь

MVO

Одни из нас

1 сезон

Deluxe

pack

Рекомендуем

30

Пиратка

ВАЖНО

ВАЖНО

Ghostwire

Пиратка

jed

RePack

nioh2

RePack

RDR2

RePack

NEED FOR SPEED™ PAYBACK

RePack

скачать торрент

Кинопоиск HD

Острые козырьки 6 сезон

6 сезон

FAR CRY 6

RePack

скачать торрент

Лицензия

скачать торрент

MVO

1

1 сезон

скачать торрент

1 сезон

скачать торрент

Лицензия

  

Легенда о Зелёном Рыцаре / The Green Knight (Дэвид Лоури) [2021, Фэнтези, приключения, UHD WEB-DL-HEVC 2160p, (SDR)] MVO [Jaskier]

Легенда о Зелёном Рыцаре через торрент piratbit.org

Размер: 11.83 GB | Добавлен: 1 год 5 мес. назад | Торрент скачан:100 раз
Смотреть онлайн | Скачать | Поддержите нас   

22-08-2021 06:21 Легенда о Зелёном Рыцаре Скачать торрент  

Легенда о Зелёном Рыцаре | The Green Knight
Год выпуска: 2021
Страна: Ирландия, Канада, США, Великобритания
Выпущено: Ирландия, Канада, США, Великобритания, Sailor Bear, BRON Studios, A24
Жанр: Фэнтези, приключения
Продолжительность: 02:09:45
Перевод: Профессиональный (многоголосый) | Jaskier
Субтитры: Русские (full (от FOCS)), английские

Режиссер: Дэвид Лоури

rating

В ролях: Анаис Риццо, Джо Андерсон, Дев Патель, Алисия Викандер, Ноэль Браун, Сарита Чоудхури, Нита Мишра, Тара МакДонах, Афина Фриззелл, Шон Харрис, Кейт Дики, Крис Макхаллем, Ралф Айнесон, Брендан Конрой, Доннча Краули, Барри Кеоган

Описание: Во времена легенд и магии, когда честь была превыше всего, сэр Гавейн принимает вызов таинственного Зеленого Рыцаря. Теперь наследник Короля Артура, рыцарь Круглого стола, должен покинуть Камелот и отправиться в опасное странствие через проклятые земли.

Качество: UHD WEB-DL-HEVC 2160p
Формат: MKV

Видео: MPEG-H HEVC, SDR, 11,9 Mбит/с, 3836x2072
Аудио 1: AC3 JOC, 6 ch, 448 |
Аудио 2: E-AC3 JOC, 6 ch, 768 Кбит/с |
скриншот  скриншот  скриншот  скриншот  

Общее
Уникальный идентификатор : 221134603615777367801230105519361469034 (0xA65CF9B95831B10E52E7B4E8D6A9AA6A)
Полное имя : E:TorrentsThe.Green.Knight.2021.2160p.WEB-DL.4K.SDR.JNS82.mkv
Формат : Matroska
Версия формата : Version 4
Размер файла : 11,8 Гбайт
Продолжительность : 2 ч. 9 м.
Общий поток : 13,1 Мбит/сек
Название фильма : The.Green.Knight.2021.2160p.WEB-DL.4K.SDR.JNS82
Дата кодирования : UTC 2021-08-21 17:22:57
Программа кодирования : mkvmerge v59.0.0 ('Shining Star') 64-bit
Библиотека кодирования : libebml v1.4.2 + libmatroska v1.6.4

Видео
Идентификатор : 1
Формат : HEVC
Формат/Информация : High Efficiency Video Coding
Профиль формата : Main 10@L5@High
Идентификатор кодека : V_MPEGH/ISO/HEVC
Продолжительность : 2 ч. 9 м.
Битрейт : 11,9 Мбит/сек
Ширина : 3 836 пикселей
Высота : 2 072 пикселя
Соотношение сторон : 1,85:1
Режим частоты кадров : Постоянный
Частота кадров : 23,976 кадра/сек
Цветовое пространство : YUV
Субдискретизация насыщенности : 4:2:0
Битовая глубина : 10 бит
Бит/(Пиксели*Кадры) : 0.062
Размер потока : 10,7 Гбайт (91%)
Default : Да
Forced : Нет
Цветовой диапазон : Limited
Основные цвета : BT.709
Характеристики трансфера : BT.709
Коэффициенты матрицы : BT.709

Аудио #1
Идентификатор : 2
Формат : AC-3
Формат/Информация : Audio Coding 3
Коммерческое название : Dolby Digital
Идентификатор кодека : A_AC3
Продолжительность : 2 ч. 4 м.
Вид битрейта : Постоянный
Битрейт : 448 Кбит/сек
Каналы : 6 каналов
Channel layout : L R C LFE Ls Rs
Частота : 48,0 КГц
Частота кадров : 31,250 кадров/сек (1536 SPF)
Метод сжатия : С потерями
Размер потока : 398 Мбайт (3%)
Заголовок : [MVO] Jaskier | KinoPub
Язык : Russian
Service kind : Complete Main
Default : Да
Forced : Нет

Аудио #2
Идентификатор : 3
Формат : E-AC-3 JOC
Формат/Информация : Enhanced AC-3 with Joint Object Coding
Коммерческое название : Dolby Digital Plus with Dolby Atmos
Идентификатор кодека : A_EAC3
Продолжительность : 2 ч. 9 м.
Вид битрейта : Постоянный
Битрейт : 768 Кбит/сек
Каналы : 6 каналов
Channel layout : L R C LFE Ls Rs
Частота : 48,0 КГц
Частота кадров : 31,250 кадров/сек (1536 SPF)
Метод сжатия : С потерями
Размер потока : 713 Мбайт (6%)
Заголовок : English
Язык : English
Service kind : Complete Main
Default : Нет
Forced : Нет
Complexity index : 16
Number of dynamic objects : 15
Bed channel count : 1 канал
Bed channel configuration : LFE

Текст #1
Идентификатор : 4
Формат : UTF-8
Идентификатор кодека : S_TEXT/UTF8
Идентификатор кодека/Информация : UTF-8 Plain Text
Продолжительность : 2 ч. 4 м.
Битрейт : 35 бит/сек
Count of elements : 788
Размер потока : 32,5 Кбайт (0%)
Заголовок : [Full] от FOCS
Язык : Russian
Default : Нет
Forced : Нет

Текст #2
Идентификатор : 5
Формат : UTF-8
Идентификатор кодека : S_TEXT/UTF8
Идентификатор кодека/Информация : UTF-8 Plain Text
Продолжительность : 2 ч. 5 м.
Битрейт : 21 бит/сек
Count of elements : 829
Размер потока : 19,9 Кбайт (0%)
Язык : English
Default : Нет
Forced : Нет




Скачать Легенда о Зелёном Рыцаре через торрент https://i115.fastpic.org/big/2021/0821/1f/92d639fac2521ea3767a09602bc4821f.jpg Скачать, смотреть онлайн Легенда о Зелёном Рыцаре бесплантно в хорошем качестве Описание: Во времена легенд и магии, когда честь была превыше всего, сэр Гавейн принимает вызов таинственного Зеленого Рыцаря. Теперь ... 10 10 3
Торрент: Зарегистрирован [2021-08-22 06:21] · скачан: 100 раз
Статус: √ проверено
Размер: 11.83 GB
Как cкачать? Как скачать Легенда о Зелёном Рыцаре через торрент | UTorrent

% Раздел Тема Автор DL S | L
Ultra HD (UHD: 2K, 4K, 8K) [ 13.89 GB ] Легенда о Зелёном Рыцаре / The Green Knight | Jaskier | 2160p bober100 Скачать
1 | 0
Фильмы 2021 [DVDrip, WEB-DLRip, HDrip] (DUB, MVO) [ 2.68 GB ] Легенда о Зелёном Рыцаре / The Green Knight | Jaskier | DLRip-AVC Lithuania Скачать
1 | 0
Фильмы 2021 [DVDrip, WEB-DLRip, HDrip] (DUB, MVO) [ 2.18 GB ] Легенда о Зелёном Рыцаре / The Green Knight | Jaskier | DLRip bober100 Скачать
1 | 0
Фильмы 2021 [DVDrip, WEB-DLRip, HDrip] (DUB, MVO) [ 1.66 GB ] Легенда о Зелёном Рыцаре / The Green Knight | Jaskier | DLRip-AVC bober100 Скачать
1 | 0
Фильмы (WEB-DL 720p, 1080p) [ 6.35 GB ] Легенда о Зелёном Рыцаре / The Green Knight | Jaskier | 1080p bober100 Скачать
2 | 0
Фильмы [HD 720p, 1080p] (Хороший звук DUB, MVO) [ 2.72 GB ] Легенда о Зелёном Рыцаре / The Green Knight | Jaskier | 1080p killermax2013 Скачать
1 | 0
Фильмы (WEB-DL 720p, 1080p) [ 3.13 GB ] Легенда о Зелёном Рыцаре / The Green Knight | Jaskier | 720p bober100 Скачать
1 | 0

28-11-2019 20:33  


Отключить вcю реклaмy на сайте, в т.ч. и в плеере онлайн просмотра!

    Дорогой пользователь! Огромная просьба, поблагодарите релизера, оцените раздачу и оставьте свои комментарий, если Вы скачали Легенда о Зелёном Рыцаре через торрент бесплатно!!
    Комментировать посты могут только пользователи прошедшие не сложную регистрацию
    Показать сообщения:    


    Легенда о Зелёном Рыцаре через торрент
    Скачать бесплатно Легенда о Зелёном Рыцаре
    Легенда о Зелёном Рыцаре скачать торрент
    Легенда о Зелёном Рыцаре смотреть онлайн
    Cкачать фильм Легенда о Зелёном Рыцаре бесплатно
    Легенда о Зелёном Рыцаре скачать торрент в хорошем качестве
    Легенда о Зелёном Рыцаре смотреть онлайн бесплатно в хорошем качестве
    Вы не можете начинать темы
    Вы не можете отвечать на сообщения
    Вы не можете редактировать свои сообщения
    Вы не можете удалять свои сообщения
    Вы не можете голосовать в опросах
    Вы не можете прикреплять файлы к сообщениям
    Вы можете скачивать файлы
    Легенда о Зелёном Рыцаре / The Green Knight [2021, Фэнтези, приключения, UHD WEB-DL-HEVC 2160p, ] MVO [Jaskier] смотреть онлайн, скачать торрент picoco.icu